⤤ Premium'a Yükselt
Filmbol Forum Film İndir 1080P v Pi'nin Yaşamı (Life of Pi) - 2012 - TR+ORG - 1080P | tt0454876

Filmbol TV kullanıma açıldı. Bu adresten giriş yapabilirsin: Giriş





Pi'nin Yaşamı (Life of Pi) - 2012 - TR+ORG - 1080P | tt0454876
BroserBros
Pi'nin Yaşamı (Life of Pi) - 2012 - TR+ORG - 1080P | tt0454876
9
1137
  • Derecelendirme: 0/5 - 0 oy
  • 1
  • 2
  • 3
  • 4
  • 5
Konuyu Okuyanlar:2 Ziyaretçi
Şuan Online!
Filmin Yayınlanma Tarihi: 2012 
WWW
Rapor Et!
Şuan Online!
BroserBros Kurucu Admin
*******
Admin



 Pi'nin Yaşamı



Pi, ailesi ile sahibi oldukları hayvanat bahçesinde çalışmaktadır. Ailesi, Hindistan’da daha fazla kalamayacaklarına karar verirler ve hayvanları ile birlikte uçsuz bir yolculuğa çıkarlar. Ancak gemi ile yaptıkları bu yolculukta bir sorun oluşur ve gemi batar. Pi’nin ailesi gemi battıktan hemen sonra ölür, Pi tek kalmıştır ve küçük bir filika ile birlikte yanında bir zebra, bir sırtlan, bir orangutan ve bir kaplan kalırlar. Pi hem hayvanat bahçesinde öğrendikleri ile hemde kıvrak zekası ile hayatta kalmaya başarır ancak bu uçsuz bucaksız Okyanus’ta ne yapabilir ve daha fazla nasıl hayatta kalabilir ki?

Pi'nin Yaşamı (2012) (Life of Pi) | tt0454876 Filmi Imdb'den 600,000 kişi tarafından oylandı ve 7,9 puan aldı. Bu film için editör puanı %91 olarak belirlendi. İyi Seyirler!

Teknik Detaylar

Kod :
General
Unique ID                                : 280186193767483027536722587405887797090 (0xD2C9E5E7222FEA6A8301589FDE5CF762)
Complete name                            : /home/BroserBros/Desktop/5/Pinin.Yaşamı.2012.1080p.BluRay.x264.TR.ENG.Filmbol.mkv
Format                                   : Matroska
Format version                           : Version 4
File size                                : 2.30 GiB
Duration                                 : 2 h 6 min
Overall bit rate                         : 2 587 kb/s
Movie name                               : Pi'nin Yaşamı - Life of Pi - 2012 | Filmbol.org
Encoded date                             : UTC 2021-04-19 15:41:56
Writing application                      : mkvmerge v53.0.0 ('Fool's Gold') 64-bit
Writing library                          : libebml v1.4.1 + libmatroska v1.6.2

Video
ID                                       : 1
Format                                   : AVC
Format/Info                              : Advanced Video Codec
Format profile                           : [email protected]
Format settings                          : CABAC / 4 Ref Frames
Format settings, CABAC                   : Yes
Format settings, Reference frames        : 4 frames
Codec ID                                 : V_MPEG4/ISO/AVC
Duration                                 : 2 h 6 min
Bit rate                                 : 2 042 kb/s
Width                                    : 1 920 pixels
Height                                   : 1 036 pixels
Display aspect ratio                     : 1.85:1
Frame rate mode                          : Constant
Frame rate                               : 23.976 (24000/1001) FPS
Color space                              : YUV
Chroma subsampling                       : 4:2:0
Bit depth                                : 8 bits
Scan type                                : Progressive
Bits/(Pixel*Frame)                       : 0.043
Stream size                              : 1.81 GiB (79%)
Title                                    : 1080P - Filmbol.org
Writing library                          : x264 core 129 r2245 bc13772
Encoding settings                        : cabac=1 / ref=4 / deblock=1:0:0 / analyse=0x3:0x113 / me=hex / subme=7 / psy=1 / psy_rd=1.00:0.00 / mixed_ref=1 / me_range=16 / chroma_me=1 / trellis=1 / 8x8dct=1 / cqm=0 / deadzone=21,11 / fast_pskip=1 / chroma_qp_offset=-2 / threads=6 / lookahead_threads=1 / sliced_threads=0 / nr=0 / decimate=1 / interlaced=0 / bluray_compat=0 / constrained_intra=0 / bframes=8 / b_pyramid=2 / b_adapt=1 / b_bias=0 / direct=1 / weightb=1 / open_gop=0 / weightp=2 / keyint=240 / keyint_min=23 / scenecut=40 / intra_refresh=0 / rc_lookahead=40 / rc=2pass / mbtree=1 / bitrate=2042 / ratetol=1.0 / qcomp=0.60 / qpmin=10 / qpmax=51 / qpstep=4 / cplxblur=20.0 / qblur=0.5 / ip_ratio=1.40 / aq=1:1.00
Default                                  : Yes
Forced                                   : No

Audio #1
ID                                       : 2
Format                                   : AC-3
Format/Info                              : Audio Coding 3
Commercial name                          : Dolby Digital
Codec ID                                 : A_AC3
Duration                                 : 2 h 6 min
Bit rate mode                            : Constant
Bit rate                                 : 448 kb/s
Channel(s)                               : 6 channels
Channel layout                           : L R C LFE Ls Rs
Sampling rate                            : 48.0 kHz
Frame rate                               : 31.250 FPS (1536 SPF)
Compression mode                         : Lossy
Stream size                              : 407 MiB (17%)
Title                                    : Türkçe - Filmbol.org
Language                                 : Turkish
Service kind                             : Complete Main
Default                                  : Yes
Forced                                   : No

Audio #2
ID                                       : 3
Format                                   : AAC LC
Format/Info                              : Advanced Audio Codec Low Complexity
Codec ID                                 : A_AAC-2
Duration                                 : 2 h 6 min
Bit rate                                 : 96.0 kb/s
Channel(s)                               : 2 channels
Channel layout                           : L R
Sampling rate                            : 48.0 kHz
Frame rate                               : 46.875 FPS (1024 SPF)
Compression mode                         : Lossy
Stream size                              : 86.9 MiB (4%)
Title                                    : Orjinal Dil - Filmbol.org
Language                                 : English
Default                                  : No
Forced                                   : No

Text
ID                                       : 4
Format                                   : UTF-8
Codec ID                                 : S_TEXT/UTF8
Codec ID/Info                            : UTF-8 Plain Text
Duration                                 : 1 h 57 min
Bit rate                                 : 44 b/s
Count of elements                        : 857
Stream size                              : 38.4 KiB (0%)
Title                                    : Türkçe - Filmbol.org
Language                                 : Turkish
Default                                  : No
Forced                                   : No

Film Detayları


 Pi'nin Yaşamı

 Pi'nin Yaşamı

 Pi'nin Yaşamı


Film Fragmanı


Film İndir


Rar Şifresi: filmbol.org


Uptobox ile indir

1Fichier ile indir

1Fichier'den İndiremiyor musun? Tıklayın!












Şuan Offine!
Rapor Et!
Şuan Offine!
ahmetyee1 Süper Üye
***
Super Üye
  • Konular2
  • Mesajlar75
  • Rep puanı 0
bunu ilk izlediğimde matematikte pi sayısını görüyorduk
Şuan Offine!
Rapor Et!
Şuan Offine!
Ugur_1988 Premium Üye
****
  • Konular12
  • Mesajlar96
  • Rep puanı 26
mükemmel
Şuan Online!
Rapor Et!
Şuan Online!
BroserBros Kurucu Admin
*******
Admin
22.04.2021 Yönetici Notu:

Kırık linkler kontrol edildi, kaldırıldı ve yenilendi. Tüm linkler tamamen çalışır durumda.
Şuan Offine!
Rapor Et!
Şuan Offine!
azdeveloper Uzman Üye
**
Uzman Üye
  • Konular0
  • Mesajlar7
  • Rep puanı 0
sagolasin
Şuan Offine!
Rapor Et!
Şuan Offine!
davutk Süper Üye
***
Super Üye
  • Konular0
  • Mesajlar53
  • Rep puanı 0
teşekkürler
Şuan Offine!
Rapor Et!
Şuan Offine!
yky Üye
*
Üye
  • Konular0
  • Mesajlar5
  • Rep puanı 0
Çok teşekkürler...
Şuan Offine!
Rapor Et!
Şuan Offine!
yasin.0136 Üye
*
Üye
  • Konular0
  • Mesajlar1
  • Rep puanı 0
Teşekkürler.
Şuan Offine!
Rapor Et!
Şuan Offine!
[email protected] Üye
*
Üye
  • Konular0
  • Mesajlar31
  • Rep puanı 0
Teşekkürler.
Şuan Offine!
Rapor Et!
Şuan Offine!
rasgun Üye
*
Üye
  • Konular0
  • Mesajlar34
  • Rep puanı 0
Teşekkürler.


Hızlı Menü: