⤤ Premium'a Yükselt

Merhaba, Ziyaretçi. Mega linklerinin bir kısmı deaktif halde ve yenileme çalışmalarına başladık. Bu süre içinde ikinci duyuruya kadar mega linklerini raporlamayın!! x

Filmbol Forum Film İndir 1080P v Sahte Savaş (Rogue Warfare) - 2019 - TR+ORG - 1080P | tt5266668

Filmbol TV kullanıma açıldı. Bu adresten giriş yapabilirsin: Giriş





Sahte Savaş (Rogue Warfare) - 2019 - TR+ORG - 1080P | tt5266668
BroserBros
Sahte Savaş (Rogue Warfare) - 2019 - TR+ORG - 1080P | tt5266668
2
523
  • Derecelendirme: 0/5 - 0 oy
  • 1
  • 2
  • 3
  • 4
  • 5
Konuyu Okuyanlar:2 Ziyaretçi
Şuan Online!
Filmin Yayınlanma Tarihi: 2019 
WWW
Rapor Et!
Şuan Online!
BroserBros Kurucu Admin
*******
Admin



 Sahte Savaş



Ortadoğu’da yeni bir terorist grubu çıkmıştır ve bu grup diğerlerine hiç benzememektedir. Çok güçlü yapıları ve siyasal destekleri ile bu teroristleri tek bir milletin yenmesi mümkün gözükmemektedir. Bu yüzde Çin, ABD, Fransa, Rusya gibi ülkeler ortak bir anti-terorist grubu oluştururlar. Bu tim’de sadece en yetenekliler yer alır ve bu durumda bile yenebilecekleri konusunda kesin bir şey yoktur… Rogue Warfare aksiyonun maksimum’da olacağı bir film gibi gözüküyor…

Sahte Savaş (2019) (Rogue Warfare) | tt5266668 Filmi Imdb'den 1,500 kişi tarafından oylandı ve 2,7 puan aldı. Bu film için editör puanı %38 olarak belirlendi. İyi Seyirler!

Teknik Detaylar

Kod :
General
Unique ID                                : 178168092621017698688449018591102052728 (0x8609ED2D3969FD74BB0A93BFEA2F2978)
Complete name                            : /home/BroserBros/Desktop/7/Sahte.Savaş.2019.1080p.BluRay.x264.TR.ENG.Filmbol.mkv
Format                                   : Matroska
Format version                           : Version 4
File size                                : 1.70 GiB
Duration                                 : 1 h 43 min
Overall bit rate                         : 2 368 kb/s
Movie name                               : Sahte Savaş - Rogue Warfare - 2019 | Filmbol.org
Encoded date                             : UTC 2021-05-25 14:07:04
Writing application                      : mkvmerge v53.0.0 ('Fool's Gold') 64-bit
Writing library                          : libebml v1.4.1 + libmatroska v1.6.2

Video
ID                                       : 1
Format                                   : AVC
Format/Info                              : Advanced Video Codec
Format profile                           : [email protected]
Format settings                          : CABAC / 2 Ref Frames
Format settings, CABAC                   : Yes
Format settings, Reference frames        : 2 frames
Format settings, GOP                     : M=1, N=25
Codec ID                                 : V_MPEG4/ISO/AVC
Duration                                 : 1 h 43 min
Bit rate                                 : 1 982 kb/s
Width                                    : 1 920 pixels
Height                                   : 804 pixels
Display aspect ratio                     : 2.40:1
Frame rate mode                          : Constant
Frame rate                               : 23.976 (24000/1001) FPS
Color space                              : YUV
Chroma subsampling                       : 4:2:0
Bit depth                                : 8 bits
Scan type                                : Progressive
Bits/(Pixel*Frame)                       : 0.054
Stream size                              : 1.43 GiB (84%)
Title                                    : Sahte Savaş - Rogue Warfare - 2019 | Filmbol.org
Language                                 : English
Default                                  : Yes
Forced                                   : No

Audio #1
ID                                       : 2
Format                                   : AC-3
Format/Info                              : Audio Coding 3
Commercial name                          : Dolby Digital
Codec ID                                 : A_AC3
Duration                                 : 1 h 43 min
Bit rate mode                            : Constant
Bit rate                                 : 192 kb/s
Channel(s)                               : 2 channels
Channel layout                           : L R
Sampling rate                            : 48.0 kHz
Frame rate                               : 31.250 FPS (1536 SPF)
Compression mode                         : Lossy
Stream size                              : 142 MiB (8%)
Title                                    : Sahte Savaş - Rogue Warfare - 2019 | Filmbol.org
Language                                 : Turkish
Service kind                             : Complete Main
Default                                  : Yes
Forced                                   : No

Audio #2
ID                                       : 3
Format                                   : AC-3
Format/Info                              : Audio Coding 3
Commercial name                          : Dolby Digital
Codec ID                                 : A_AC3
Duration                                 : 1 h 43 min
Bit rate mode                            : Constant
Bit rate                                 : 192 kb/s
Channel(s)                               : 2 channels
Channel layout                           : L R
Sampling rate                            : 48.0 kHz
Frame rate                               : 31.250 FPS (1536 SPF)
Compression mode                         : Lossy
Stream size                              : 142 MiB (8%)
Title                                    : Sahte Savaş - Rogue Warfare - 2019 | Filmbol.org
Language                                 : English
Service kind                             : Complete Main
Default                                  : No
Forced                                   : No

Film Detayları


 Sahte Savaş

 Sahte Savaş

 Sahte Savaş


Film Fragmanı


Film İndir


Rar Şifresi: filmbol.org


Uptobox ile indir

1Fichier ile indir

1Fichier'den İndiremiyor musun? Tıklayın!












Şuan Offine!
Rapor Et!
Şuan Offine!
cemsav97 Süper Üye
***
Super Üye
  • Konular0
  • Mesajlar78
  • Rep puanı 2
teşekkürler
Şuan Online!
Rapor Et!
Şuan Online!
BroserBros Kurucu Admin
*******
Admin
27.05.2021 Yönetici Notu:

Kırık linkler kontrol edildi, kaldırıldı ve yenilendi. Tüm linkler tamamen çalışır durumda.


Hızlı Menü: