⤤ Premium'a Yükselt
Filmbol Forum Film İndir BRRip XviD v Öksüz Brooklyn (Motherless Brooklyn) - 2019 - TR - BRRip XviD | tt0385887

Filmbol TV kullanıma açıldı. Bu adresten giriş yapabilirsin: Giriş





Öksüz Brooklyn (Motherless Brooklyn) - 2019 - TR - BRRip XviD | tt0385887
BroserBros
Öksüz Brooklyn (Motherless Brooklyn) - 2019 - TR - BRRip XviD | tt0385887
1
477
  • Derecelendirme: 0/5 - 0 oy
  • 1
  • 2
  • 3
  • 4
  • 5
Konuyu Okuyanlar:2 Ziyaretçi
Şuan Online!
Filmin Yayınlanma Tarihi: 2019 
WWW
Rapor Et!
Şuan Online!
BroserBros Kurucu Admin
*******
Admin



 Öksüz Brooklyn



Öksüz Brooklyn 1950’li yıllarda New York’da bir dedektiftir. Brooklyn, zihinsel bir hastalığa yakalanmıştır ve bu sendrom için bir yandan çözüm ararken bir yandan da yakın arkadaşı olan Frank Minna’nın ölümünü araştırıyor olması gerekiyordu. Pek fazla bilgiye sahip değildi ve iki sorun ile uğraşması gerekiyordur….

Öksüz Brooklyn (2019) (Motherless Brooklyn) | tt0385887 Filmi Imdb'den 50,000 kişi tarafından oylandı ve 6,8 puan aldı. Bu film için editör puanı %75 olarak belirlendi. İyi Seyirler!

Teknik Detaylar

Kod :
General
Unique ID                                : 292503173999399827132050378872409546103 (0xDC0E0FE9F06063088C3B78684F97DD77)
Complete name                            : /home/BroserBros/Desktop/5/Öksüz.Brooklyn.2019.BRRip.XviD.TR.Filmbol.avi
Format                                   : Matroska
Format version                           : Version 4
File size                                : 1.73 GiB
Duration                                 : 2 h 24 min
Overall bit rate                         : 1 711 kb/s
Movie name                               : Öksüz Brooklyn - Motherless Brooklyn - 2019 | Filmbol.org
Encoded date                             : UTC 2021-05-25 13:25:12
Writing application                      : mkvmerge v53.0.0 ('Fool's Gold') 64-bit
Writing library                          : libebml v1.4.1 + libmatroska v1.6.2
FileExtension_Invalid                    : mkv mk3d mka mks

Video
ID                                       : 1
Format                                   : MPEG-4 Visual
Format profile                           : [email protected]
Format settings, BVOP                    : No
Format settings, QPel                    : No
Format settings, GMC                     : No warppoints
Format settings, Matrix                  : Default (H.263)
Codec ID                                 : V_MS/VFW/FOURCC / XVID
Codec ID/Hint                            : XviD
Duration                                 : 2 h 24 min
Bit rate                                 : 1 581 kb/s
Width                                    : 720 pixels
Height                                   : 388 pixels
Display aspect ratio                     : 1.85:1
Original display aspect ratio            : 1.85:1
Frame rate mode                          : Constant
Frame rate                               : 23.976 FPS
Color space                              : YUV
Chroma subsampling                       : 4:2:0
Bit depth                                : 8 bits
Scan type                                : Progressive
Compression mode                         : Lossy
Bits/(Pixel*Frame)                       : 0.236
Stream size                              : 1.59 GiB (92%)
Title                                    : Öksüz Brooklyn - Motherless Brooklyn - 2019 | Filmbol.org
Writing library                          : Lavc58.35.100
Default                                  : Yes
Forced                                   : No

Audio
ID                                       : 2
Format                                   : MPEG Audio
Format version                           : Version 1
Format profile                           : Layer 3
Format settings                          : Joint stereo / MS Stereo
Codec ID                                 : A_MPEG/L3
Codec ID/Hint                            : MP3
Duration                                 : 2 h 24 min
Bit rate mode                            : Constant
Bit rate                                 : 128 kb/s
Channel(s)                               : 2 channels
Sampling rate                            : 48.0 kHz
Frame rate                               : 41.667 FPS (1152 SPF)
Compression mode                         : Lossy
Stream size                              : 132 MiB (7%)
Title                                    : Öksüz Brooklyn - Motherless Brooklyn - 2019 | Filmbol.org
Language                                 : Turkish
Default                                  : Yes
Forced                                   : No

Film Detayları


 Öksüz Brooklyn

 Öksüz Brooklyn

 Öksüz Brooklyn


Film Fragmanı


Film İndir


Rar Şifresi: filmbol.org



Uptobox ile indir

1Fichier ile indir

1Fichier'den İndiremiyor musun? Tıklayın!












Şuan Online!
Rapor Et!
Şuan Online!
BroserBros Kurucu Admin
*******
Admin
27.05.2021 Yönetici Notu:

Kırık linkler kontrol edildi, kaldırıldı ve yenilendi. Tüm linkler tamamen çalışır durumda.


Hızlı Menü: