⤤ Premium'a Yükselt

Merhaba, Ziyaretçi. Mega linklerinin bir kısmı deaktif halde ve yenileme çalışmalarına başladık. Bu süre içinde ikinci duyuruya kadar mega linklerini raporlamayın!! x

Filmbol Forum Film İndir BRRip XviD v Zorlu Operasyon (Geukhanjikeon - Extreme Job) - 2019 - TR - BRRip XviD | tt9541602

Filmbol TV kullanıma açıldı. Bu adresten giriş yapabilirsin: Giriş





Zorlu Operasyon (Geukhanjikeon - Extreme Job) - 2019 - TR - BRRip XviD | tt9541602
BroserBros
Zorlu Operasyon (Geukhanjikeon - Extreme Job) - 2019 - TR - BRRip XviD | tt9541602
1
371
  • Derecelendirme: 0/5 - 0 oy
  • 1
  • 2
  • 3
  • 4
  • 5
Konuyu Okuyanlar:2 Ziyaretçi
Şuan Online!
Filmin Yayınlanma Tarihi: 2019 
WWW
Rapor Et!
Şuan Online!
BroserBros Kurucu Admin
*******
Admin



 Zorlu Operasyon



Polis olarak görev yapan beş kişi, ki bunlar aslında narkotik ajan ve dedektiflerdir. Azılı ve aranan en kötü suçluları avlamak için garson ve aşcı kılıfına girerler. Ancak işler istedikleri yürümez, aslında yürümek üzeredir ki, aşcı kılığına girdikleri yerde inanılmaz lezzetli yiyecek çıkarırlar ve git gide popüler olmaya başlarlar. Bu durumdan dolayı artık polislik kariyerleri bitirir ve aşcılık ile devam etmeye karar verirler. Peki bu iş o kadar kolay mıdır?

Zorlu Operasyon (2019) (Geukhanjikeon - Extreme Job) | tt9541602 Filmi Imdb'den 8,000 kişi tarafından oylandı ve 7,1 puan aldı. Bu film için editör puanı %60 olarak belirlendi. İyi Seyirler!

Teknik Detaylar

Kod :
General
Unique ID                                : 63682317022147197969608511017141599076 (0x2FE8C4A40AE7D20B39661F295846FB64)
Complete name                            : /home/BroserBros/Desktop/3/Zorlu.Operasyon.2019.BRRip.XviD.TR.Filmbol.avi
Format                                   : Matroska
Format version                           : Version 4
File size                                : 979 MiB
Duration                                 : 1 h 51 min
Overall bit rate                         : 1 231 kb/s
Movie name                               : Zorlu Operasyon - Extreme Job - 2019 | Filmbol.org
Encoded date                             : UTC 2021-05-25 12:56:19
Writing application                      : mkvmerge v53.0.0 ('Fool's Gold') 64-bit
Writing library                          : libebml v1.4.1 + libmatroska v1.6.2
FileExtension_Invalid                    : mkv mk3d mka mks

Video
ID                                       : 1
Format                                   : MPEG-4 Visual
Format profile                           : Advanced [email protected]
Format settings                          : BVOP2
Format settings, BVOP                    : 2
Format settings, QPel                    : No
Format settings, GMC                     : No warppoints
Format settings, Matrix                  : Default (MPEG)
Muxing mode                              : Packed bitstream
Codec ID                                 : V_MS/VFW/FOURCC / XVID
Codec ID/Hint                            : XviD
Duration                                 : 1 h 51 min
Bit rate                                 : 1 101 kb/s
Width                                    : 720 pixels
Height                                   : 300 pixels
Display aspect ratio                     : 2.40:1
Frame rate mode                          : Constant
Frame rate                               : 24.000 FPS
Color space                              : YUV
Chroma subsampling                       : 4:2:0
Bit depth                                : 8 bits
Scan type                                : Progressive
Compression mode                         : Lossy
Bits/(Pixel*Frame)                       : 0.212
Stream size                              : 876 MiB (89%)
Title                                    : Zorlu Operasyon - Extreme Job - 2019 | Filmbol.org
Writing library                          : XviD 64
Default                                  : Yes
Forced                                   : No

Audio
ID                                       : 2
Format                                   : MPEG Audio
Format version                           : Version 1
Format profile                           : Layer 3
Format settings                          : Joint stereo / MS Stereo
Codec ID                                 : A_MPEG/L3
Codec ID/Hint                            : MP3
Duration                                 : 1 h 51 min
Bit rate mode                            : Constant
Bit rate                                 : 128 kb/s
Channel(s)                               : 2 channels
Sampling rate                            : 48.0 kHz
Frame rate                               : 41.667 FPS (1152 SPF)
Compression mode                         : Lossy
Stream size                              : 102 MiB (10%)
Title                                    : Zorlu Operasyon - Extreme Job - 2019 | Filmbol.org
Language                                 : Turkish
Default                                  : Yes
Forced                                   : No

Film Detayları


 Zorlu Operasyon

 Zorlu Operasyon

 Zorlu Operasyon


Film Fragmanı


Film İndir


Rar Şifresi: filmbol.org



Uptobox ile indir

1Fichier ile indir

1Fichier'den İndiremiyor musun? Tıklayın!












Şuan Online!
Rapor Et!
Şuan Online!
BroserBros Kurucu Admin
*******
Admin
27.05.2021 Yönetici Notu:

Kırık linkler kontrol edildi, kaldırıldı ve yenilendi. Tüm linkler tamamen çalışır durumda.


Hızlı Menü: