⤤ Premium'a Yükselt

Merhaba, Ziyaretçi. Mega linklerinin bir kısmı deaktif halde ve yenileme çalışmalarına başladık. Bu süre içinde ikinci duyuruya kadar mega linklerini raporlamayın!! x

Filmbol Forum Film İndir BRRip XviD v Serenity: Gizemli Yolculuk (Serenity) - 2005 - TR - BRRip XviD | tt0379786

Filmbol TV kullanıma açıldı. Bu adresten giriş yapabilirsin: Giriş





Serenity: Gizemli Yolculuk (Serenity) - 2005 - TR - BRRip XviD | tt0379786
BroserBros
Serenity: Gizemli Yolculuk (Serenity) - 2005 - TR - BRRip XviD | tt0379786
8
1066
  • Derecelendirme: 0/5 - 0 oy
  • 1
  • 2
  • 3
  • 4
  • 5
Konuyu Okuyanlar:3 Ziyaretçi
Şuan Online!
Filmin Yayınlanma Tarihi: 2005 
WWW
Rapor Et!
Şuan Online!
BroserBros Kurucu Admin
*******
Admin



 Serenity: Gizemli Yolculuk



Gezegen dışı bir göreve atanan Serenity gemisinin mürettebatları uzayda buldukları ve yardım isteyen bir kişiyi gemilerine alırlar. İlk başta her şey normal gibidir; ancak gemiye aldıkları bu kişinin asıl amaçları yavaş yavaş ortaya çıkmaya başladığında işin çehresi değişecektir. Küçük bir alanda, korkunç bir kedi-fare oyunu oynamaya başlayacaklardır.

Serenity: Gizemli Yolculuk (2005) (Serenity) | tt0379786 Filmi Imdb'den 290,000 kişi tarafından oylandı ve 7,8 puan aldı. Bu film için editör puanı %80 olarak belirlendi. İyi Seyirler!

Teknik Detaylar

Kod :
General
Unique ID                                : 144007582054610581920245330690832109450 (0x6C56D9F89CD52D458416C2908A0C8F8A)
Complete name                            : /home/BroserBros/Desktop/7/Serenity.2005.BRRip.XViD.TR.Filmbol.avi
Format                                   : Matroska
Format version                           : Version 4
File size                                : 759 MiB
Duration                                 : 1 h 58 min
Overall bit rate                         : 891 kb/s
Movie name                               : Serenity - 2005 | Filmbol.org
Encoded date                             : UTC 2021-03-26 14:16:29
Writing application                      : mkvmerge v53.0.0 ('Fool's Gold') 64-bit
Writing library                          : libebml v1.4.1 + libmatroska v1.6.2
FileExtension_Invalid                    : mkv mk3d mka mks

Video
ID                                       : 1
Format                                   : AVC
Format/Info                              : Advanced Video Codec
Format profile                           : [email protected]
Format settings                          : CABAC / 3 Ref Frames
Format settings, CABAC                   : Yes
Format settings, Reference frames        : 3 frames
Codec ID                                 : V_MPEG4/ISO/AVC
Duration                                 : 1 h 58 min
Bit rate                                 : 794 kb/s
Width                                    : 960 pixels
Height                                   : 540 pixels
Display aspect ratio                     : 16:9
Frame rate mode                          : Constant
Frame rate                               : 23.976 (24000/1001) FPS
Color space                              : YUV
Chroma subsampling                       : 4:2:0
Bit depth                                : 8 bits
Scan type                                : Progressive
Bits/(Pixel*Frame)                       : 0.064
Stream size                              : 675 MiB (89%)
Title                                    : Serenity - 2005 | Filmbol.org
Default                                  : Yes
Forced                                   : No

Audio
ID                                       : 2
Format                                   : AAC LC SBR
Format/Info                              : Advanced Audio Codec Low Complexity with Spectral Band Replication
Commercial name                          : HE-AAC
Format settings                          : Explicit
Codec ID                                 : A_AAC-2
Duration                                 : 1 h 58 min
Bit rate                                 : 96.0 kb/s
Channel(s)                               : 2 channels
Channel layout                           : L R
Sampling rate                            : 48.0 kHz
Frame rate                               : 23.438 FPS (2048 SPF)
Compression mode                         : Lossy
Delay relative to video                  : -83 ms
Stream size                              : 81.7 MiB (11%)
Title                                    : Serenity - 2005 | Filmbol.org
Language                                 : Turkish
Default                                  : Yes
Forced                                   : No

Film Detayları


 Serenity: Gizemli Yolculuk

 Serenity: Gizemli Yolculuk

 Serenity: Gizemli Yolculuk


Film Fragmanı


Film İndir


Rar Şifresi: filmbol.org



Uptobox ile indir

1Fichier ile indir

1Fichier'den İndiremiyor musun? Tıklayın!












Şuan Offine!
Rapor Et!
Şuan Offine!
filmbolcu Süper Üye
***
Super Üye
  • Konular7
  • Mesajlar122
  • Rep puanı 2
Teşekkürler
Şuan Offine!
Rapor Et!
Şuan Offine!
agresif Süper Üye
***
Super Üye
  • Konular0
  • Mesajlar37
  • Rep puanı 0
teşekkürler
Şuan Offine!
Rapor Et!
Şuan Offine!
tarik55 Uzman Üye
**
Uzman Üye
  • Konular0
  • Mesajlar16
  • Rep puanı 0
Tşkler
Şuan Offine!
Rapor Et!
Şuan Offine!
BerserkerTR Üye
*
Üye
  • Konular0
  • Mesajlar5
  • Rep puanı 0
adamsın
Şuan Offine!
Rapor Et!
Şuan Offine!
BlackJuan Süper Üye
***
Super Üye
  • Konular0
  • Mesajlar36
  • Rep puanı 0
teşekkürler.
Şuan Online!
Rapor Et!
Şuan Online!
TheSteeL Chief Executive Officer
******
CEO
(11-03-2021, Saat: 09:43)BlackJuan Adlı Kullanıcıdan Alıntı: teşekkürler.
İyi Seyirler
Şuan Online!
Rapor Et!
Şuan Online!
BroserBros Kurucu Admin
*******
Admin
28.03.2021 Yönetici Notu:

Kırık linkler kontrol edildi, kaldırıldı ve yenilendi. Tüm linkler tamamen çalışır durumda. @Furkan61
Şuan Offine!
Rapor Et!
Şuan Offine!
Furkan61 Cezalı Üye
  • Konular0
  • Mesajlar288
(28-03-2021, Saat: 18:35)BroserBros Adlı Kullanıcıdan Alıntı: 28.03.2021 Yönetici Notu:

Kırık linkler kontrol edildi, kaldırıldı ve yenilendi. Tüm linkler tamamen çalışır durumda. @Furkan61
Teşekkürler BroserBros ?


Hızlı Menü: