⤤ Premium'a Yükselt
Filmbol Forum Film İndir 720P v Ölüm Alfabesi (Ouija) - 2014 - TR+ORG - 720P | tt1204977

Filmbol TV kullanıma açıldı. Bu adresten giriş yapabilirsin: Giriş





Ölüm Alfabesi (Ouija) - 2014 - TR+ORG - 720P | tt1204977
BroserBros
Ölüm Alfabesi (Ouija) - 2014 - TR+ORG - 720P | tt1204977
4
719
  • Derecelendirme: 0/5 - 0 oy
  • 1
  • 2
  • 3
  • 4
  • 5
Konuyu Okuyanlar:1 Ziyaretçi
Şuan Online!
Filmin Yayınlanma Tarihi: 2014 
WWW
Rapor Et!
Şuan Online!
BroserBros Kurucu Admin
*******
Admin



 Ölüm Alfabesi



Debbie, video günlük tutan bir genç kızdır. Bir gün evlerinde bir oyun bulur. Üzerinde Ouija yazan bu tahtanın üzerinde harfler ve “evet” “hayır” seçenekleri vardır. Oyunu bulmasıyla birlikte evde tuhaf şeyler olmaya başlar. Genç kız evinde asılmış olarak bulunur. En iyi arkadaşının ölümünü bir türlü kabullenemeyen Laine, onunla bir şekilde yeniden iletişim kurmak ister. Yakın arkadaşlarıyla gizemi çözmek için bu Ouija’yı araştırmaya başlarlar, ancak Debbie, tahtaya bakarken kötücül güçleri uyandırmıştır ve arkadaşları da büyük bir tehlike altındadır. Durdurmak içinse artık çok geçtir...

Ölüm Alfabesi (2014) (Ouija) | tt1204977 Filmi Imdb'den 50,000 kişi tarafından oylandı ve 4,5 puan aldı. Bu film için editör puanı %52 olarak belirlendi. İyi Seyirler!

Teknik Detaylar

Kod :
General
Unique ID                                : 139230375522866231469791735838786108972 (0x68BECB811B908F687E6DB715F15EBE2C)
Complete name                            : /home/BroserBros/Desktop/7/Ölüm.Alfabesi.2014.720p.BluRay.x264.TR.ENG.Filmbol.mkv
Format                                   : Matroska
Format version                           : Version 4
File size                                : 986 MiB
Duration                                 : 1 h 29 min
Overall bit rate                         : 1 540 kb/s
Movie name                               : Ölüm Alfabesi - Ouija - 2014 | Filmbol.org
Encoded date                             : UTC 2021-04-16 17:25:44
Writing application                      : mkvmerge v53.0.0 ('Fool's Gold') 64-bit
Writing library                          : libebml v1.4.1 + libmatroska v1.6.2

Video
ID                                       : 1
Format                                   : AVC
Format/Info                              : Advanced Video Codec
Format profile                           : [email protected]
Format settings                          : CABAC / 4 Ref Frames
Format settings, CABAC                   : Yes
Format settings, Reference frames        : 4 frames
Codec ID                                 : V_MPEG4/ISO/AVC
Duration                                 : 1 h 29 min
Bit rate                                 : 997 kb/s
Width                                    : 1 280 pixels
Height                                   : 536 pixels
Display aspect ratio                     : 2.40:1
Frame rate mode                          : Constant
Frame rate                               : 23.976 (24000/1001) FPS
Original frame rate                      : 23.976 (23976/1000) FPS
Color space                              : YUV
Chroma subsampling                       : 4:2:0
Bit depth                                : 8 bits
Scan type                                : Progressive
Bits/(Pixel*Frame)                       : 0.061
Stream size                              : 638 MiB (65%)
Title                                    : 720P - Filmbol.org
Writing library                          : x264 core 142 r2479 dd79a61
Encoding settings                        : cabac=1 / ref=4 / deblock=1:-1:-1 / analyse=0x3:0x133 / me=umh / subme=9 / psy=1 / psy_rd=1.00:0.15 / mixed_ref=1 / me_range=24 / chroma_me=1 / trellis=2 / 8x8dct=1 / cqm=0 / deadzone=21,11 / fast_pskip=0 / chroma_qp_offset=-3 / threads=48 / lookahead_threads=4 / sliced_threads=0 / nr=0 / decimate=1 / interlaced=0 / bluray_compat=0 / constrained_intra=0 / bframes=3 / b_pyramid=2 / b_adapt=2 / b_bias=0 / direct=3 / weightb=1 / open_gop=0 / weightp=2 / keyint=250 / keyint_min=23 / scenecut=40 / intra_refresh=0 / rc_lookahead=60 / rc=2pass / mbtree=1 / bitrate=997 / ratetol=1.0 / qcomp=0.60 / qpmin=0 / qpmax=69 / qpstep=4 / cplxblur=20.0 / qblur=0.5 / vbv_maxrate=31250 / vbv_bufsize=31250 / nal_hrd=none / filler=0 / ip_ratio=1.40 / aq=1:1.00
Default                                  : Yes
Forced                                   : No
Color range                              : Limited
Color primaries                          : BT.709
Matrix coefficients                      : BT.709

Audio #1
ID                                       : 2
Format                                   : AC-3
Format/Info                              : Audio Coding 3
Commercial name                          : Dolby Digital
Codec ID                                 : A_AC3
Duration                                 : 1 h 29 min
Bit rate mode                            : Constant
Bit rate                                 : 448 kb/s
Channel(s)                               : 6 channels
Channel layout                           : L R C LFE Ls Rs
Sampling rate                            : 48.0 kHz
Frame rate                               : 31.250 FPS (1536 SPF)
Compression mode                         : Lossy
Delay relative to video                  : -83 ms
Stream size                              : 286 MiB (29%)
Title                                    : Türkçe - Filmbol.org
Language                                 : Turkish
Service kind                             : Complete Main
Default                                  : Yes
Forced                                   : No

Audio #2
ID                                       : 3
Format                                   : AAC LC
Format/Info                              : Advanced Audio Codec Low Complexity
Codec ID                                 : A_AAC-2
Duration                                 : 1 h 29 min
Bit rate                                 : 93.7 kb/s
Channel(s)                               : 2 channels
Channel layout                           : L R
Sampling rate                            : 48.0 kHz
Frame rate                               : 46.875 FPS (1024 SPF)
Compression mode                         : Lossy
Delay relative to video                  : -83 ms
Stream size                              : 60.0 MiB (6%)
Title                                    : Orjinal Dil - Filmbol.org
Language                                 : English
Default                                  : No
Forced                                   : No

Text
ID                                       : 4
Format                                   : UTF-8
Codec ID                                 : S_TEXT/UTF8
Codec ID/Info                            : UTF-8 Plain Text
Duration                                 : 1 h 22 min
Bit rate                                 : 41 b/s
Count of elements                        : 538
Stream size                              : 25.1 KiB (0%)
Title                                    : Türkçe - Filmbol.org
Language                                 : Turkish
Default                                  : No
Forced                                   : No

Film Detayları


 Ölüm Alfabesi

 Ölüm Alfabesi

 Ölüm Alfabesi


Film Fragmanı


Film İndir


Rar Şifresi: filmbol.org


Uptobox ile indir

1Fichier ile indir

1Fichier'den İndiremiyor musun? Tıklayın!












Şuan Offine!
Rapor Et!
Şuan Offine!
draydinozkan Süper Üye
***
Super Üye
  • Konular0
  • Mesajlar47
  • Rep puanı 0
Teşekkürler.
Şuan Online!
Rapor Et!
Şuan Online!
BroserBros Kurucu Admin
*******
Admin
18.04.2021 Yönetici Notu:

Kırık linkler kontrol edildi, kaldırıldı ve yenilendi. Tüm linkler tamamen çalışır durumda.
Şuan Offine!
Rapor Et!
Şuan Offine!
tunay34bg Üye
*
Üye
  • Konular0
  • Mesajlar1
  • Rep puanı 0
Teşekkürler
Şuan Online!
Rapor Et!
Şuan Online!
leosanchez Üye
*
Üye
  • Konular0
  • Mesajlar275
  • Rep puanı 0
Teşekkürler.


Hızlı Menü: