⤤ Premium'a Yükselt
Filmbol Forum Film İndir BRRip XviD v The Wave (Dalga) - 2019 - TR - BRRip XviD | tt4354756

Filmbol TV kullanıma açıldı. Bu adresten giriş yapabilirsin: Giriş





The Wave (Dalga) - 2019 - TR - BRRip XviD | tt4354756
BroserBros
The Wave (Dalga) - 2019 - TR - BRRip XviD | tt4354756
1
420
  • Derecelendirme: 0/5 - 0 oy
  • 1
  • 2
  • 3
  • 4
  • 5
Konuyu Okuyanlar:2 Ziyaretçi
Şuan Online!
Filmin Yayınlanma Tarihi: 2019 
WWW
Rapor Et!
Şuan Online!
BroserBros Kurucu Admin
*******
Admin



 The Wave



Dünya algısını değiştirebilecek kadar güçlü bir doz hayal edin. Frank bunu sevmiş olmalı ki, sürekli olarak bu dozdan alır ve geceleri tuhaflaşır, halüsyoslanlar görür ve bunlar sanki gerçek düzeydedir.

The Wave (2019) (Dalga) | tt4354756 Filmi Imdb'den 4,000 kişi tarafından oylandı ve 6,1 puan aldı. Bu film için editör puanı %59 olarak belirlendi. İyi Seyirler!

Teknik Detaylar

Kod :
General
Unique ID                                : 137922200635115216699140054471291031897 (0x67C2D980B080300497F714B3628DD159)
Complete name                            : /home/BroserBros/Desktop/6/Dalga.2019.BRRip.XviD.TR.Filmbol.avi
Format                                   : Matroska
Format version                           : Version 4
File size                                : 940 MiB
Duration                                 : 1 h 27 min
Overall bit rate                         : 1 505 kb/s
Movie name                               : Dalga - The Wave - 2019 | Filmbol.org
Encoded date                             : UTC 2021-05-28 12:41:48
Writing application                      : mkvmerge v53.0.0 ('Fool's Gold') 64-bit
Writing library                          : libebml v1.4.1 + libmatroska v1.6.2
FileExtension_Invalid                    : mkv mk3d mka mks

Video
ID                                       : 1
Format                                   : MPEG-4 Visual
Format profile                           : [email protected]
Format settings, BVOP                    : No
Format settings, QPel                    : No
Format settings, GMC                     : No warppoints
Format settings, Matrix                  : Default (H.263)
Codec ID                                 : V_MS/VFW/FOURCC / XVID
Codec ID/Hint                            : XviD
Duration                                 : 1 h 27 min
Bit rate                                 : 1 375 kb/s
Width                                    : 720 pixels
Height                                   : 302 pixels
Display aspect ratio                     : 2.40:1
Frame rate mode                          : Constant
Frame rate                               : 23.976 FPS
Color space                              : YUV
Chroma subsampling                       : 4:2:0
Bit depth                                : 8 bits
Scan type                                : Progressive
Compression mode                         : Lossy
Bits/(Pixel*Frame)                       : 0.264
Stream size                              : 859 MiB (91%)
Title                                    : Dalga - The Wave - 2019 | Filmbol.org
Writing library                          : Lavc58.1.100
Default                                  : Yes
Forced                                   : No

Audio
ID                                       : 2
Format                                   : MPEG Audio
Format version                           : Version 1
Format profile                           : Layer 3
Format settings                          : Joint stereo / MS Stereo
Codec ID                                 : A_MPEG/L3
Codec ID/Hint                            : MP3
Duration                                 : 1 h 27 min
Bit rate mode                            : Constant
Bit rate                                 : 128 kb/s
Channel(s)                               : 2 channels
Sampling rate                            : 48.0 kHz
Frame rate                               : 41.667 FPS (1152 SPF)
Compression mode                         : Lossy
Stream size                              : 79.9 MiB (9%)
Title                                    : Dalga - The Wave - 2019 | Filmbol.org
Language                                 : Turkish
Default                                  : Yes
Forced                                   : No

Film Detayları


 The Wave

 The Wave

 The Wave


Film Fragmanı


Film İndir


Rar Şifresi: filmbol.org



Uptobox ile indir

1Fichier ile indir

1Fichier'den İndiremiyor musun? Tıklayın!












Şuan Online!
Rapor Et!
Şuan Online!
BroserBros Kurucu Admin
*******
Admin
29.05.2021 Yönetici Notu:

Kırık linkler kontrol edildi, kaldırıldı ve yenilendi. Tüm linkler tamamen çalışır durumda.


Hızlı Menü: