⤤ Premium'a Yükselt
Filmbol Forum Film İndir 1080P v İstilacılar (Snatchers) - 2019 - TR+ORG - 1080P | tt10009030

Filmbol TV kullanıma açıldı. Bu adresten giriş yapabilirsin: Giriş





İstilacılar (Snatchers) - 2019 - TR+ORG - 1080P | tt10009030
BroserBros
İstilacılar (Snatchers) - 2019 - TR+ORG - 1080P | tt10009030
4
591
  • Derecelendirme: 0/5 - 0 oy
  • 1
  • 2
  • 3
  • 4
  • 5
Konuyu Okuyanlar:3 Ziyaretçi
Şuan Online!
Filmin Yayınlanma Tarihi: 2019 
WWW
Rapor Et!
Şuan Online!
BroserBros Kurucu Admin
*******
Admin



 İstilacılar



Santchers yönetmenliğini Stephen Cedars ve Benji Kleiman’ın, senaristliğini ise Scott Hinckley, Elli Legerski’nin yaptığı kurgu ve korku karışımı türde bir filmdir. Filmde erkek arkadaşı ile ayrılmış olan kızın, erkek arkadaşıyla tekrar birleşmesi ve sonrasında yaşadığı tuhaf olaylar konu alınmaktadır. Ana karakterimiz sevgilisinin ilk tanıştığı sevgilisi olmadığını ve kendisinin de hamile kaldığını anlar. Ama bu hamilelik sıradan bir hamilelik değildir. Bu anormal süreci anlayabilmek adına birçok farklı kişilerle görüşür ve sevgilisinin kısa süre önce yaz tatiline gittiği bir yerden yalnızca kendisinin değil yanında başka bir şeyin de geldiğini anlar. Ama artık çok geçtir, acaba ana karakterimizin karnında gelişimini sürdüren bu şey tam olarak nedir? Ana karakterimize ek olarak acaba bu hamilelik dünyayı nelere gebe bırakacak?

İstilacılar (2019) (Snatchers) | tt10009030 Filmi Imdb'den 2,600 kişi tarafından oylandı ve 5,8 puan aldı. Bu film için editör puanı %62 olarak belirlendi. İyi Seyirler!

Teknik Detaylar

Kod :
General
Unique ID                                : 225539360176488084440033416679170335676 (0xA9AD4CFD4F0559828B6C9D6213E563BC)
Complete name                            : /home/BroserBros/Desktop/4/İstilacılar.2019.1080p.BluRay.x264.TR.ENG.Filmbol.mkv
Format                                   : Matroska
Format version                           : Version 4
File size                                : 1.64 GiB
Duration                                 : 1 h 36 min
Overall bit rate                         : 2 429 kb/s
Movie name                               : İstilacılar - Snatchers - 2019 | Filmbol.org
Encoded date                             : UTC 2021-05-28 12:29:38
Writing application                      : mkvmerge v53.0.0 ('Fool's Gold') 64-bit
Writing library                          : libebml v1.4.1 + libmatroska v1.6.2

Video
ID                                       : 1
Format                                   : AVC
Format/Info                              : Advanced Video Codec
Format profile                           : [email protected]
Format settings                          : CABAC / 2 Ref Frames
Format settings, CABAC                   : Yes
Format settings, Reference frames        : 2 frames
Format settings, GOP                     : M=1, N=25
Codec ID                                 : V_MPEG4/ISO/AVC
Duration                                 : 1 h 36 min
Bit rate                                 : 2 043 kb/s
Width                                    : 1 920 pixels
Height                                   : 872 pixels
Display aspect ratio                     : 2.2:1
Frame rate mode                          : Constant
Frame rate                               : 23.976 (24000/1001) FPS
Color space                              : YUV
Chroma subsampling                       : 4:2:0
Bit depth                                : 8 bits
Scan type                                : Progressive
Bits/(Pixel*Frame)                       : 0.051
Stream size                              : 1.38 GiB (84%)
Title                                    : İstilacılar - Snatchers - 2019 | Filmbol.org
Default                                  : Yes
Forced                                   : No

Audio #1
ID                                       : 2
Format                                   : AC-3
Format/Info                              : Audio Coding 3
Commercial name                          : Dolby Digital
Codec ID                                 : A_AC3
Duration                                 : 1 h 36 min
Bit rate mode                            : Constant
Bit rate                                 : 192 kb/s
Channel(s)                               : 2 channels
Channel layout                           : L R
Sampling rate                            : 48.0 kHz
Frame rate                               : 31.250 FPS (1536 SPF)
Compression mode                         : Lossy
Stream size                              : 133 MiB (8%)
Title                                    : İstilacılar - Snatchers - 2019 | Filmbol.org
Language                                 : Turkish
Service kind                             : Complete Main
Default                                  : Yes
Forced                                   : No

Audio #2
ID                                       : 3
Format                                   : AC-3
Format/Info                              : Audio Coding 3
Commercial name                          : Dolby Digital
Codec ID                                 : A_AC3
Duration                                 : 1 h 36 min
Bit rate mode                            : Constant
Bit rate                                 : 192 kb/s
Channel(s)                               : 2 channels
Channel layout                           : L R
Sampling rate                            : 48.0 kHz
Frame rate                               : 31.250 FPS (1536 SPF)
Compression mode                         : Lossy
Stream size                              : 133 MiB (8%)
Title                                    : İstilacılar - Snatchers - 2019 | Filmbol.org
Language                                 : English
Service kind                             : Complete Main
Default                                  : No
Forced                                   : No

Film Detayları


 İstilacılar

 İstilacılar

 İstilacılar


Film Fragmanı


Film İndir


Rar Şifresi: filmbol.org


Uptobox ile indir

1Fichier ile indir

1Fichier'den İndiremiyor musun? Tıklayın!












Şuan Offine!
Rapor Et!
Şuan Offine!
ahmetyee1 Süper Üye
***
Super Üye
  • Konular2
  • Mesajlar75
  • Rep puanı 0
GÜZEL EĞİ
Şuan Online!
Rapor Et!
Şuan Online!
BroserBros Kurucu Admin
*******
Admin
29.05.2021 Yönetici Notu:

Kırık linkler kontrol edildi, kaldırıldı ve yenilendi. Tüm linkler tamamen çalışır durumda.
Şuan Offine!
Rapor Et!
Şuan Offine!
pars67 Üye
*
Üye
  • Konular0
  • Mesajlar66
  • Rep puanı 0
Teşekkürler.
Şuan Offine!
Rapor Et!
Şuan Offine!
ahleten Uzman Üye
**
Uzman Üye
  • Konular0
  • Mesajlar180
  • Rep puanı 0
Teşekkürler.


Hızlı Menü: