⤤ Premium'a Yükselt
Filmbol Forum Film İndir BRRip XviD v Malefiz: Kötülüğün Gücü (Maleficent: Mistress of Evil) - 2019 - TR - BRRip XviD | tt4777008

Filmbol TV kullanıma açıldı. Bu adresten giriş yapabilirsin: Giriş





Malefiz: Kötülüğün Gücü (Maleficent: Mistress of Evil) - 2019 - TR - BRRip XviD | tt4777008
BroserBros
Malefiz: Kötülüğün Gücü (Maleficent: Mistress of Evil) - 2019 - TR - BRRip XviD | tt4777008
4
681
  • Derecelendirme: 0/5 - 0 oy
  • 1
  • 2
  • 3
  • 4
  • 5
Konuyu Okuyanlar:2 Ziyaretçi
Şuan Online!
Filmin Yayınlanma Tarihi: 2019 
WWW
Rapor Et!
Şuan Online!
BroserBros Kurucu Admin
*******
Admin



 Malefiz: Kötülüğün Gücü



Malefiz: Kötülüğün Gücü, Malefiz ve Aurora arasındaki karmaşık ilişkiye odaklanıyor. Yıllar Maleficent ve Aurora’ya iyi davranmıştır. İlişkileri kalp kırıklıklarından, intikam öyküsüne ve sonunda sevgiye dönüşür. Ancak hala insanlar ve periler arasındaki nefret ilişkisi sürmektedir. Aurora’nın Prens Phillip ile gerçekleşecek olan evliliği, iki bölgenin birliğini sağlayacağı için Ulstead ve Moors Krallığı’nda kutlanır. Beklenmedik bir karşılaşma ise yeni ittifakları da beraberinde getirir. Büyük Savaş içerisinde Maleficent ve Aurora ise ayrı düşer. Sadakatlerini test eden bu durum, ikisinin gerçek bir aile olup olmadıklarını sorgulamalarına neden olur.

Malefiz: Kötülüğün Gücü (2019) (Maleficent: Mistress of Evil) | tt4777008 Filmi Imdb'den 90,000 kişi tarafından oylandı ve 6,6 puan aldı. Bu film için editör puanı %76 olarak belirlendi. İyi Seyirler!

Teknik Detaylar

Kod :
General
Unique ID                                : 184514045089187822240658366687090863210 (0x8AD01CCA292759C8D60F754BCA806C6A)
Complete name                            : /home/BroserBros/Desktop/5/Malefiz.Kötülüğün.Gücü.2019.BRRip.XviD.TR.Filmbol.avi
Format                                   : Matroska
Format version                           : Version 4
File size                                : 1.43 GiB
Duration                                 : 1 h 58 min
Overall bit rate                         : 1 726 kb/s
Movie name                               : Malefiz Kötülüğün Gücü - Maleficent Mistress of Evil - 2019 | Filmbol.org
Encoded date                             : UTC 2021-05-24 17:46:07
Writing application                      : mkvmerge v53.0.0 ('Fool's Gold') 64-bit
Writing library                          : libebml v1.4.1 + libmatroska v1.6.2
FileExtension_Invalid                    : mkv mk3d mka mks

Video
ID                                       : 1
Format                                   : MPEG-4 Visual
Format profile                           : [email protected]
Format settings, BVOP                    : No
Format settings, QPel                    : No
Format settings, GMC                     : No warppoints
Format settings, Matrix                  : Default (H.263)
Codec ID                                 : V_MS/VFW/FOURCC / XVID
Codec ID/Hint                            : XviD
Duration                                 : 1 h 58 min
Bit rate                                 : 1 597 kb/s
Width                                    : 720 pixels
Height                                   : 302 pixels
Display aspect ratio                     : 2.40:1
Original display aspect ratio            : 2.40:1
Frame rate mode                          : Constant
Frame rate                               : 23.976 FPS
Color space                              : YUV
Chroma subsampling                       : 4:2:0
Bit depth                                : 8 bits
Scan type                                : Progressive
Compression mode                         : Lossy
Bits/(Pixel*Frame)                       : 0.306
Stream size                              : 1.33 GiB (92%)
Title                                    : Malefiz Kötülüğün Gücü - Maleficent Mistress of Evil - 2019 | Filmbol.org
Writing library                          : Lavc58.35.100
Default                                  : Yes
Forced                                   : No

Audio
ID                                       : 2
Format                                   : MPEG Audio
Format version                           : Version 1
Format profile                           : Layer 3
Format settings                          : Joint stereo
Codec ID                                 : A_MPEG/L3
Codec ID/Hint                            : MP3
Duration                                 : 1 h 58 min
Bit rate mode                            : Constant
Bit rate                                 : 128 kb/s
Channel(s)                               : 2 channels
Sampling rate                            : 48.0 kHz
Frame rate                               : 41.667 FPS (1152 SPF)
Compression mode                         : Lossy
Stream size                              : 109 MiB (7%)
Title                                    : Malefiz Kötülüğün Gücü - Maleficent Mistress of Evil - 2019 | Filmbol.org
Default                                  : Yes
Forced                                   : No

Film Detayları


 Malefiz: Kötülüğün Gücü

 Malefiz: Kötülüğün Gücü

 Malefiz: Kötülüğün Gücü


Film Fragmanı


Film İndir


Rar Şifresi: filmbol.org



Uptobox ile indir

1Fichier ile indir

1Fichier'den İndiremiyor musun? Tıklayın!












Şuan Offine!
Rapor Et!
Şuan Offine!
sectechno Premium Üye
****
  • Konular19
  • Mesajlar204
  • Rep puanı 47
Teşekkürler.Eline,emeğine sağlık,kolay gelsin.İyi çalışmalar.
Şuan Offine!
Rapor Et!
Şuan Offine!
Furkan61 Cezalı Üye
  • Konular0
  • Mesajlar288
güzel
Şuan Online!
Rapor Et!
Şuan Online!
BroserBros Kurucu Admin
*******
Admin
25.05.2021 Yönetici Notu:

Kırık linkler kontrol edildi, kaldırıldı ve yenilendi. Tüm linkler tamamen çalışır durumda.
Şuan Offine!
Rapor Et!
Şuan Offine!
ruby2345 Üye
*
Üye
  • Konular0
  • Mesajlar12
  • Rep puanı 0
Teşekkürler.


Hızlı Menü: