⤤ Premium'a Yükselt
Filmbol Forum Film İndir 3D v Galaksinin Koruyucuları (Guardians of the Galaxy) - 2014 - TR+ORG - 3D | tt2015381

Filmbol TV kullanıma açıldı. Bu adresten giriş yapabilirsin: Giriş





Galaksinin Koruyucuları (Guardians of the Galaxy) - 2014 - TR+ORG - 3D | tt2015381
BroserBros
Galaksinin Koruyucuları (Guardians of the Galaxy) - 2014 - TR+ORG - 3D | tt2015381
12
1083
  • Derecelendirme: 5/5 - 1 oy
  • 1
  • 2
  • 3
  • 4
  • 5
Konuyu Okuyanlar:1 Ziyaretçi
Şuan Online!
Filmin Yayınlanma Tarihi: 2014 
WWW
Rapor Et!
Şuan Online!
BroserBros Kurucu Admin
*******
Admin



 Galaksinin Koruyucuları



Galaksinin Koruyucuları, evrenin kontrolünü ele geçirmeye çalışanları durdurmaya çalışan bir grup suçlunun hikayesini konu ediyor. Kendisine Star-Lord lakabını takan maceracı Peter Quill, esrarengiz bir küreyi çalınca güçlü, hırslı ve ihtiraslı bir kötü adam olan Ronan’la başı derde girer. Ronan’ın tek amacı küreyi ele geçirmektir ve bu hayali tüm evreni tehdit altına alabilir. Quill, ondan kurtulmak isterken bir anda kendisini birbiriyle hiçbir ilgisi olmayan uyumsuz bir ekibin içerisinde bulur; tehlikeyi yok etmek isteyen Star-Lord, silahlı bir rakun olan Roket, Rakun’un yoldaşı olan ağaç kılıklı Groot, ölümcül yeşil kadın Gamora ve gözünü intikam hırsı bürümüş Yokedici Drax ile işbirliği içerisine girer. Galaksinin Koruyucuları olarak anılan bu beşli, evren için gerçekten tehlike arz eden bu kürenin gücüne ve peşindeki düşmanlarına karşı ne yapacaktır? Marvel’ın “Guardians Of The Galaxy” adlı çizgi romanından uyarlanan filmin yönetmenliğini Slither ve Super filmlerinin yönetmeni James Gunn üstlenirken başrol ve seslendirme kadrosunda Chris Pratt, Vin Diesel, Bradley Cooper ve Zoe Saldana gibi isimler bulunuyor.

Galaksinin Koruyucuları (2014) (Guardians of the Galaxy) | tt2015381 Filmi Imdb'den 1,100,000 kişi tarafından oylandı ve 8,0 puan aldı. Bu film için editör puanı %92 olarak belirlendi. İyi Seyirler!

Teknik Detaylar

Kod :
General
Unique ID                                : 237674717114462193849565104716355626897 (0xB2CE7C47DB646861B4C2CEEAEE8A6791)
Complete name                            : /home/BroserBros/Desktop/4/Galaksinin.Koruyucuları.2014.3D.HSBS.BluRay.x264.TR.ENG.Filmbol.mkv
Format                                   : Matroska
Format version                           : Version 4
File size                                : 2.18 GiB
Duration                                 : 2 h 0 min
Overall bit rate                         : 2 576 kb/s
Movie name                               : Galaksinin Koruyucuları - Guardians of the Galaxy - 2014 | Filmbol.org
Encoded date                             : UTC 2021-03-09 12:40:15
Writing application                      : mkvmerge v53.0.0 ('Fool's Gold') 64-bit
Writing library                          : libebml v1.4.1 + libmatroska v1.6.2
Cover                                    : Yes
Attachments                              : cover_land.jpg / small_cover.jpg / small_cover_land.jpg / cover.jpg

Video
ID                                       : 1
Format                                   : AVC
Format/Info                              : Advanced Video Codec
Format profile                           : [email protected]
Format settings                          : CABAC / 4 Ref Frames
Format settings, CABAC                   : Yes
Format settings, Reference frames        : 4 frames
Codec ID                                 : V_MPEG4/ISO/AVC
Duration                                 : 2 h 0 min
Bit rate                                 : 2 097 kb/s
Width                                    : 1 920 pixels
Height                                   : 1 080 pixels
Display aspect ratio                     : 16:9
Frame rate mode                          : Constant
Frame rate                               : 23.976 (24000/1001) FPS
Original frame rate                      : 23.976 (23976/1000) FPS
Color space                              : YUV
Chroma subsampling                       : 4:2:0
Bit depth                                : 8 bits
Scan type                                : Progressive
Bits/(Pixel*Frame)                       : 0.042
Stream size                              : 1.77 GiB (81%)
Title                                    : 3D - Filmbol.org
Writing library                          : x264 core 142 r2479 dd79a61
Encoding settings                        : cabac=1 / ref=4 / deblock=1:-1:-1 / analyse=0x3:0x133 / me=umh / subme=9 / psy=1 / psy_rd=1.00:0.15 / mixed_ref=1 / me_range=24 / chroma_me=1 / trellis=2 / 8x8dct=1 / cqm=0 / deadzone=21,11 / fast_pskip=0 / chroma_qp_offset=-3 / threads=48 / lookahead_threads=4 / sliced_threads=0 / nr=0 / decimate=1 / interlaced=0 / bluray_compat=0 / constrained_intra=0 / bframes=3 / b_pyramid=2 / b_adapt=2 / b_bias=0 / direct=3 / weightb=1 / open_gop=0 / weightp=2 / keyint=250 / keyint_min=23 / scenecut=40 / intra_refresh=0 / rc_lookahead=60 / rc=2pass / mbtree=1 / bitrate=2097 / ratetol=1.0 / qcomp=0.60 / qpmin=0 / qpmax=69 / qpstep=4 / cplxblur=20.0 / qblur=0.5 / vbv_maxrate=31250 / vbv_bufsize=31250 / nal_hrd=none / filler=0 / ip_ratio=1.40 / aq=1:1.00
Default                                  : Yes
Forced                                   : No
Color range                              : Limited
Color primaries                          : BT.709
Matrix coefficients                      : BT.709

Audio #1
ID                                       : 2
Format                                   : AC-3
Format/Info                              : Audio Coding 3
Commercial name                          : Dolby Digital
Codec ID                                 : A_AC3
Duration                                 : 2 h 0 min
Bit rate mode                            : Constant
Bit rate                                 : 384 kb/s
Channel(s)                               : 6 channels
Channel layout                           : L R C LFE Ls Rs
Sampling rate                            : 48.0 kHz
Frame rate                               : 31.250 FPS (1536 SPF)
Compression mode                         : Lossy
Delay relative to video                  : -83 ms
Stream size                              : 332 MiB (15%)
Title                                    : Türkçe - Filmbol.org
Language                                 : Turkish
Service kind                             : Complete Main
Default                                  : Yes
Forced                                   : No

Audio #2
ID                                       : 3
Format                                   : AAC LC
Format/Info                              : Advanced Audio Codec Low Complexity
Codec ID                                 : A_AAC-2
Duration                                 : 2 h 0 min
Bit rate                                 : 93.7 kb/s
Channel(s)                               : 2 channels
Channel layout                           : L R
Sampling rate                            : 48.0 kHz
Frame rate                               : 46.875 FPS (1024 SPF)
Compression mode                         : Lossy
Delay relative to video                  : -83 ms
Stream size                              : 81.0 MiB (4%)
Title                                    : Orjinal Dil - Filmbol.org
Language                                 : English
Default                                  : No
Forced                                   : No

Text
ID                                       : 4
Format                                   : UTF-8
Codec ID                                 : S_TEXT/UTF8
Codec ID/Info                            : UTF-8 Plain Text
Duration                                 : 2 h 0 min
Bit rate                                 : 50 b/s
Count of elements                        : 1207
Stream size                              : 44.3 KiB (0%)
Title                                    : Türkçe Altyazı - Filmbol.org
Language                                 : Turkish
Default                                  : No
Forced                                   : No

Film Detayları


 Galaksinin Koruyucuları

 Galaksinin Koruyucuları

 Galaksinin Koruyucuları


Film Fragmanı


Film İndir


Rar Şifresi: filmbol.org


Uptobox ile indir

1Fichier ile indir

1Fichier'den İndiremiyor musun? Tıklayın!












Şuan Offine!
Rapor Et!
Şuan Offine!
bthnkdr Uzman Üye
**
Uzman Üye
  • Konular0
  • Mesajlar1
  • Rep puanı 0
teşekkülerrr
Şuan Offine!
Rapor Et!
Şuan Offine!
Kingstone Uzman Üye
**
Uzman Üye
  • Konular0
  • Mesajlar40
  • Rep puanı 0
mükemmel
Şuan Online!
Rapor Et!
Şuan Online!
BroserBros Kurucu Admin
*******
Admin
11.03.2021 Yönetici Notu:

Kırık linkler kontrol edildi, kaldırıldı ve yenilendi. Tüm linkler tamamen çalışır durumda.
Şuan Offine!
Rapor Et!
Şuan Offine!
mussa Süper Üye
***
Super Üye
  • Konular0
  • Mesajlar21
  • Rep puanı 0
admin harikasınnnn
Şuan Offine!
Rapor Et!
Şuan Offine!
metin2002 Üye
*
Üye
  • Konular0
  • Mesajlar3
  • Rep puanı 0
harika
Şuan Online!
Rapor Et!
Şuan Online!
TheSteeL Chief Executive Officer
******
CEO
İyi Seyirler
Şuan Offine!
Rapor Et!
Şuan Offine!
rule06 Üye
*
Üye
  • Konular0
  • Mesajlar77
  • Rep puanı 1
Tesekkur ederım.

düşük boyutlu .
super 3D paylasımlar
Şuan Offine!
Rapor Et!
Şuan Offine!
Johny Üye
*
Üye
  • Konular0
  • Mesajlar17
  • Rep puanı 0
Teşekkürler.
Şuan Offine!
Rapor Et!
Şuan Offine!
mehmetsakirarslan Üye
*
Üye
  • Konular0
  • Mesajlar29
  • Rep puanı 0
Teşekkürler.


Hızlı Menü: