⤤ Premium'a Yükselt

Merhaba, Ziyaretçi. Mega linklerinin bir kısmı deaktif halde ve yenileme çalışmalarına başladık. Bu süre içinde ikinci duyuruya kadar mega linklerini raporlamayın!! x

Filmbol Forum Film İndir BRRip XviD v Halloween II: Katliam (Hallowwen 2) Türkçe Dublaj BRRip XviD indir

Filmbol TV kullanıma açıldı. Bu adresten giriş yapabilirsin: Giriş





Halloween II: Katliam (Hallowwen 2) Türkçe Dublaj BRRip XviD indir
BroserBros
Halloween II: Katliam (Hallowwen 2) Türkçe Dublaj BRRip XviD indir
1
494
  • Derecelendirme: 0/5 - 0 oy
  • 1
  • 2
  • 3
  • 4
  • 5
Konuyu Okuyanlar:2 Ziyaretçi
Şuan Online!
Filmin Yayınlanma Tarihi: 2009 
WWW
Rapor Et!
Şuan Online!
BroserBros Kurucu Admin
*******
Admin



[süre]105 dakika[/süre]

[avimp3][/avimp3]




 Halloween II: Katliam



Michael Myers, yaşadığı ve yaşattığı travmaların izini sürmeye devam ediyor. Yıllar sonra "deliler evi"nden kaçıp Laurie'nin hayatını zehir erme girişiminin sekteye uğramasından sonra, yine ve yeniden kötülük tohumları saçmak için kasabaya geri dönüyor. Öz abisinin bitmek bilmeyen saldırılar zincirinin ardından Şerif Brackett tarafından bulunan Laurie, vakit kaybetmeden hastaneye götürülür. Aynı şekilde Michael’ın elinden kurtulmayı başaran Annie Brackett ve Dr. Loomis'in de yolları aynı mekana düşer. Michael ise, olağanüstü şartlara rağmen diğer ambulanstan kaçmayı başarır ve yarım bıraktığı işi tamamlama girişimine yeltenir. Hastanedeki Laurie ve diğerlerini bekleyen sürpriz, eli kanlı Michael'dir. Hastaneya yaptığı bu beklenmedik ziyaretinde kardeşine ulaşana kadar önüne gelen herkesi öldürmekten çekinmeyecektir. Aynı zamanda dünyaca ünlü White Zombie adlı bir heavy metal grubunun vokalisti olan Rob Zombie, 2007 yılında yeniden çevirdiği Halloween’ın devam filmiyle karşımızda. Filmin senaryosunu da yazan yönetmenin bu kez Laurie ile Michael arasındaki ilişkinin derinine indiği ve aynı psikolojik sorunların Laurie’de de olması ihtimali üzerine odaklandığı söyleniyor.

Halloween II: Katliam (2009) (Hallowwen 2) Filmi Imdb'den 50,000 kişi tarafından oylandı ve 4,9 puan aldı. Bu film için editör puanı 5,0 olarak belirlendi. İyi Seyirler!

Teknik Detaylar

Kod :
General
Complete name                            : /root/Desktop/4/Halloween.II.2009.DVDRip.XviD.TR.Filmbol.avi
Format                                   : AVI
Format/Info                              : Audio Video Interleave
File size                                : 2.74 GiB
Duration                                 : 3h 22mn
Overall bit rate                         : 1 937 Kbps

Video
ID                                       : 0
Format                                   : MPEG-4 Visual
Format profile                           : Advanced [email protected]
Format settings, BVOP                    : 2
Format settings, QPel                    : No
Format settings, GMC                     : No warppoints
Format settings, Matrix                  : Default (MPEG)
Codec ID                                 : XVID
Codec ID/Hint                            : XviD
Duration                                 : 3h 22mn
Bit rate                                 : 1 734 Kbps
Width                                    : 720 pixels
Height                                   : 384 pixels
Display aspect ratio                     : 1.85:1
Frame rate                               : 25.000 fps
Color space                              : YUV
Chroma subsampling                       : 4:2:0
Bit depth                                : 8 bits
Scan type                                : Progressive
Compression mode                         : Lossy
Bits/(Pixel*Frame)                       : 0.251
Stream size                              : 2.45 GiB (90%)
Writing library                          : XviD 1.2.1 (UTC 2008-12-04)

Audio
ID                                       : 1
Format                                   : AC-3
Format/Info                              : Audio Coding 3
Mode extension                           : CM (complete main)
Format settings, Endianness              : Big
Codec ID                                 : 2000
Duration                                 : 3h 22mn
Bit rate mode                            : Constant
Bit rate                                 : 192 Kbps
Channel(s)                               : 2 channels
Channel positions                        : Front: L R
Sampling rate                            : 48.0 KHz
Frame rate                               : 31.250 fps (1536 spf)
Compression mode                         : Lossy
Stream size                              : 278 MiB (10%)
Alignment                                : Aligned on interleaves
Interleave, duration                     : 32 ms (0.80 video frame)

Film Detayları


 Halloween II: Katliam

 Halloween II: Katliam

 Halloween II: Katliam


Film Fragmanı


Film İndir


Rar Şifresi: filmbol.org

[brripindir][/brripindir]


Uptobox ile indir

1Fichier ile indir

1Fichier'den İndiremiyor musun? Tıklayın!




[mediafirenew]http://www.mediafire.com/file/ltphbfk5zdq4qeq/BR.hllwn10.rar/file[/mediafirenew]
Şuan Online!
Rapor Et!
Şuan Online!
ismailim Üye
*
Üye
  • Konular0
  • Mesajlar37
  • Rep puanı 0
Teşekkürler.


Hızlı Menü: