⤤ Premium'a Yükselt

Merhaba, Ziyaretçi. Mega linklerinin bir kısmı deaktif halde ve yenileme çalışmalarına başladık. Bu süre içinde ikinci duyuruya kadar mega linklerini raporlamayın!! x

Filmbol Forum Film İndir 1080P v Sahtekar (The Good Liar) - 2019 - TR+ORG - 1080P | tt5563334

Filmbol TV kullanıma açıldı. Bu adresten giriş yapabilirsin: Giriş





Sahtekar (The Good Liar) - 2019 - TR+ORG - 1080P | tt5563334
BroserBros
Sahtekar (The Good Liar) - 2019 - TR+ORG - 1080P | tt5563334
1
530
  • Derecelendirme: 0/5 - 0 oy
  • 1
  • 2
  • 3
  • 4
  • 5
Konuyu Okuyanlar:2 Ziyaretçi
Şuan Online!
Filmin Yayınlanma Tarihi: 2019 
WWW
Rapor Et!
Şuan Online!
BroserBros Kurucu Admin
*******
Admin



 Sahtekar



Yaşamı boyunca dolandırıcılık yapmış olan yaşlı Roy Courtnay, bir akşam yemeği için zengin dul Betty McLeish ile tanışır. İnternetteki çöpçatanlık siteleri aracılığıyla tanışmış olan ikili, kısa sürede birbirlerine yakınlaşırlar. Betty’nin mali varlığı 3 milyon pound değerindedir ve bu Roy’un şimdiye kadarki yaptığı dolandırıcılıklar arasında en büyük parayı elde edeceği ilişki olacaktır. Betty’nin ayaklarını planlı bir şekilde yerden kesen Roy, incelikli planının arasında yavaş yavaş Betty’e değer vermeye başladığını fark eder. Oldukça büyük bir servete konmak için Betty’i kandırmakla planını iptal etmek arasında bir seçim yapması gerekmektedir. Ancak işler Betty’nin torunu, büyük annesinin en son yoldaşına yönelik açık bir şüphecilik gösterdiğinde daha da karmaşık hale gelir. Roy’a güvenmeyen torunu yüzünden arada kalan Betty’nin de Roy’un planlarını bozabilecek gizli bir geçmişi vardır…

Sahtekar (2019) (The Good Liar) | tt5563334 Filmi Imdb'den 30,000 kişi tarafından oylandı ve 6,6 puan aldı. Bu film için editör puanı %72 olarak belirlendi. İyi Seyirler!

Teknik Detaylar

Kod :
General
Unique ID                                : 70833701678205647499566256348348588105 (0x354A13206A9892682E69FE5E9A6CA049)
Complete name                            : /home/BroserBros/Desktop/8/Sahtekar.2019.1080p.BluRay.x264.TR.ENG.Filmbol.mkv
Format                                   : Matroska
Format version                           : Version 4
File size                                : 2.02 GiB
Duration                                 : 1 h 49 min
Overall bit rate                         : 2 635 kb/s
Movie name                               : Sahtekar - The Good Liar - 2019 | Filmbol.org
Encoded date                             : UTC 2021-05-28 12:57:59
Writing application                      : mkvmerge v53.0.0 ('Fool's Gold') 64-bit
Writing library                          : libebml v1.4.1 + libmatroska v1.6.2

Video
ID                                       : 1
Format                                   : AVC
Format/Info                              : Advanced Video Codec
Format profile                           : [email protected]
Format settings                          : CABAC / 4 Ref Frames
Format settings, CABAC                   : Yes
Format settings, Reference frames        : 4 frames
Codec ID                                 : V_MPEG4/ISO/AVC
Duration                                 : 1 h 49 min
Bit rate                                 : 2 250 kb/s
Width                                    : 1 920 pixels
Height                                   : 800 pixels
Display aspect ratio                     : 2.40:1
Frame rate mode                          : Constant
Frame rate                               : 23.976 (24000/1001) FPS
Color space                              : YUV
Chroma subsampling                       : 4:2:0
Bit depth                                : 8 bits
Scan type                                : Progressive
Bits/(Pixel*Frame)                       : 0.061
Stream size                              : 1.72 GiB (85%)
Title                                    : Sahtekar - The Good Liar - 2019 | Filmbol.org
Writing library                          : x264 core 158
Encoding settings                        : cabac=1 / ref=4 / deblock=1:-1:-1 / analyse=0x3:0x133 / me=umh / subme=9 / psy=1 / psy_rd=1.00:0.15 / mixed_ref=1 / me_range=24 / chroma_me=1 / trellis=2 / 8x8dct=1 / cqm=0 / deadzone=21,11 / fast_pskip=0 / chroma_qp_offset=-3 / threads=18 / lookahead_threads=1 / sliced_threads=0 / nr=0 / decimate=1 / interlaced=0 / bluray_compat=0 / constrained_intra=0 / bframes=3 / b_pyramid=2 / b_adapt=2 / b_bias=0 / direct=3 / weightb=1 / open_gop=0 / weightp=2 / keyint=250 / keyint_min=23 / scenecut=40 / intra_refresh=0 / rc_lookahead=60 / rc=2pass / mbtree=1 / bitrate=2250 / ratetol=1.0 / qcomp=0.60 / qpmin=0 / qpmax=69 / qpstep=4 / cplxblur=20.0 / qblur=0.5 / vbv_maxrate=31250 / vbv_bufsize=31250 / nal_hrd=none / filler=0 / ip_ratio=1.40 / aq=1:1.00
Default                                  : Yes
Forced                                   : No

Audio #1
ID                                       : 2
Format                                   : AC-3
Format/Info                              : Audio Coding 3
Commercial name                          : Dolby Digital
Codec ID                                 : A_AC3
Duration                                 : 1 h 49 min
Bit rate mode                            : Constant
Bit rate                                 : 192 kb/s
Channel(s)                               : 2 channels
Channel layout                           : L R
Sampling rate                            : 48.0 kHz
Frame rate                               : 31.250 FPS (1536 SPF)
Compression mode                         : Lossy
Stream size                              : 151 MiB (7%)
Title                                    : Sahtekar - The Good Liar - 2019 | Filmbol.org
Language                                 : Turkish
Service kind                             : Complete Main
Default                                  : Yes
Forced                                   : No

Audio #2
ID                                       : 3
Format                                   : AC-3
Format/Info                              : Audio Coding 3
Commercial name                          : Dolby Digital
Codec ID                                 : A_AC3
Duration                                 : 1 h 49 min
Bit rate mode                            : Constant
Bit rate                                 : 192 kb/s
Channel(s)                               : 2 channels
Channel layout                           : L R
Sampling rate                            : 48.0 kHz
Frame rate                               : 31.250 FPS (1536 SPF)
Compression mode                         : Lossy
Stream size                              : 151 MiB (7%)
Title                                    : Sahtekar - The Good Liar - 2019 | Filmbol.org
Language                                 : English
Service kind                             : Complete Main
Default                                  : No
Forced                                   : No

Text
ID                                       : 4
Format                                   : UTF-8
Codec ID                                 : S_TEXT/UTF8
Codec ID/Info                            : UTF-8 Plain Text
Duration                                 : 1 h 48 min
Bit rate                                 : 51 b/s
Count of elements                        : 1394
Stream size                              : 40.6 KiB (0%)
Title                                    : Sahtekar - The Good Liar - 2019 | Filmbol.org
Language                                 : Turkish
Default                                  : No
Forced                                   : No

Film Detayları


 Sahtekar

 Sahtekar

 Sahtekar


Film Fragmanı


Film İndir


Rar Şifresi: filmbol.org


Uptobox ile indir

1Fichier ile indir

1Fichier'den İndiremiyor musun? Tıklayın!












Şuan Online!
Rapor Et!
Şuan Online!
BroserBros Kurucu Admin
*******
Admin
29.05.2021 Yönetici Notu:

Kırık linkler kontrol edildi, kaldırıldı ve yenilendi. Tüm linkler tamamen çalışır durumda.


Hızlı Menü: