⤤ Premium'a Yükselt

Merhaba, Ziyaretçi. Mega linklerinin bir kısmı deaktif halde ve yenileme çalışmalarına başladık. Bu süre içinde ikinci duyuruya kadar mega linklerini raporlamayın!! x

Filmbol Forum Film İndir 1080P v Hepsi Gerçek (All Is True) - 2018 - TR+ORG - 1080P | tt9206798

Filmbol TV kullanıma açıldı. Bu adresten giriş yapabilirsin: Giriş





Hepsi Gerçek (All Is True) - 2018 - TR+ORG - 1080P | tt9206798
BroserBros
Hepsi Gerçek (All Is True) - 2018 - TR+ORG - 1080P | tt9206798
1
476
  • Derecelendirme: 0/5 - 0 oy
  • 1
  • 2
  • 3
  • 4
  • 5
Konuyu Okuyanlar:2 Ziyaretçi
Şuan Online!
Filmin Yayınlanma Tarihi: 2018 
WWW
Rapor Et!
Şuan Online!
BroserBros Kurucu Admin
*******
Admin



 Hepsi Gerçek



“All Is True” filmi, ünlü oyun yazarı William Shakespeare’in son günlerine kapsamlı bir bakış sunuyor. Hikaye 1613’te, Shakespeare’in çağın en büyük yazarı olarak kabul edildiği bir dönemde geçiyor. Fakat 1599 yılında Shakespeare’in oyuncular topluluğu tarafından inşa edilen ünlü Globe Tiyatrosu, 29 Haziran 1613’de yangında yerle bir olur. Bunun sonucu olarak ünlü Shakespeare, sorunlu geçmişi ve ihmal ettiği ailesi ile yüzleşmesi gereken Stratford’a geri döner. Tek oğlu Hamnet’in ölümünün acısını içinden atamayan Shakespeare, karısı ve kızları ile olan ilişkilerini düzeltmek için mücadele eder. Bir koca ve bir baba olarak kendi başarısızlıkları ve hatalarıyla yüzleşmek zorunda kalan Shakespeare, gerçeği bulmak için kişisel bir arayışa girişir. Bu arayış birbirleriyle savaş halindeki bu ailenin sırlarını ve yalanlarını açığa çıkaracaktır…

Hepsi Gerçek (2018) (All Is True) | tt9206798 Filmi Imdb'den 4,000 kişi tarafından oylandı ve 6,2 puan aldı. Bu film için editör puanı %65 olarak belirlendi. İyi Seyirler!

Teknik Detaylar

Kod :
General
Unique ID                                : 94172496503465753224880954182207097768 (0x46D8F68D6B18A89D669A8320DAF94BA8)
Complete name                            : /home/BroserBros/Desktop/1/Hepsi.Gerçek.2018.1080p.BluRay.x264.TR.ENG.Filmbol.mkv
Format                                   : Matroska
Format version                           : Version 4
File size                                : 1.75 GiB
Duration                                 : 1 h 40 min
Overall bit rate                         : 2 486 kb/s
Movie name                               : Hepsi Gerçek - All is True - 2018 | Filmbol.org
Encoded date                             : UTC 2021-05-31 14:52:56
Writing application                      : mkvmerge v53.0.0 ('Fool's Gold') 64-bit
Writing library                          : libebml v1.4.1 + libmatroska v1.6.2

Video
ID                                       : 1
Format                                   : AVC
Format/Info                              : Advanced Video Codec
Format profile                           : [email protected]
Format settings                          : CABAC / 4 Ref Frames
Format settings, CABAC                   : Yes
Format settings, Reference frames        : 4 frames
Codec ID                                 : V_MPEG4/ISO/AVC
Duration                                 : 1 h 40 min
Bit rate                                 : 2 100 kb/s
Width                                    : 1 920 pixels
Height                                   : 800 pixels
Display aspect ratio                     : 2.40:1
Frame rate mode                          : Constant
Frame rate                               : 23.976 (24000/1001) FPS
Color space                              : YUV
Chroma subsampling                       : 4:2:0
Bit depth                                : 8 bits
Scan type                                : Progressive
Bits/(Pixel*Frame)                       : 0.057
Stream size                              : 1.48 GiB (84%)
Title                                    : Hepsi Gerçek - All is True - 2018 | Filmbol.org
Writing library                          : x264 core 152
Encoding settings                        : cabac=1 / ref=4 / deblock=1:-1:-1 / analyse=0x3:0x133 / me=umh / subme=9 / psy=1 / psy_rd=1.00:0.15 / mixed_ref=1 / me_range=24 / chroma_me=1 / trellis=2 / 8x8dct=1 / cqm=0 / deadzone=21,11 / fast_pskip=0 / chroma_qp_offset=-3 / threads=12 / lookahead_threads=1 / sliced_threads=0 / nr=0 / decimate=1 / interlaced=0 / bluray_compat=0 / constrained_intra=0 / bframes=3 / b_pyramid=2 / b_adapt=2 / b_bias=0 / direct=3 / weightb=1 / open_gop=0 / weightp=2 / keyint=250 / keyint_min=23 / scenecut=40 / intra_refresh=0 / rc_lookahead=60 / rc=2pass / mbtree=1 / bitrate=2100 / ratetol=1.0 / qcomp=0.60 / qpmin=0 / qpmax=69 / qpstep=4 / cplxblur=20.0 / qblur=0.5 / vbv_maxrate=31250 / vbv_bufsize=31250 / nal_hrd=none / filler=0 / ip_ratio=1.40 / aq=1:1.00
Default                                  : Yes
Forced                                   : No

Audio #1
ID                                       : 2
Format                                   : AC-3
Format/Info                              : Audio Coding 3
Commercial name                          : Dolby Digital
Codec ID                                 : A_AC3
Duration                                 : 1 h 40 min
Bit rate mode                            : Constant
Bit rate                                 : 192 kb/s
Channel(s)                               : 2 channels
Channel layout                           : L R
Sampling rate                            : 48.0 kHz
Frame rate                               : 31.250 FPS (1536 SPF)
Compression mode                         : Lossy
Stream size                              : 139 MiB (8%)
Title                                    : Hepsi Gerçek - All is True - 2018 | Filmbol.org
Language                                 : Turkish
Service kind                             : Complete Main
Default                                  : Yes
Forced                                   : No

Audio #2
ID                                       : 3
Format                                   : AC-3
Format/Info                              : Audio Coding 3
Commercial name                          : Dolby Digital
Codec ID                                 : A_AC3
Duration                                 : 1 h 40 min
Bit rate mode                            : Constant
Bit rate                                 : 192 kb/s
Channel(s)                               : 2 channels
Channel layout                           : L R
Sampling rate                            : 48.0 kHz
Frame rate                               : 31.250 FPS (1536 SPF)
Compression mode                         : Lossy
Stream size                              : 139 MiB (8%)
Title                                    : Hepsi Gerçek - All is True - 2018 | Filmbol.org
Language                                 : English
Service kind                             : Complete Main
Default                                  : No
Forced                                   : No

Film Detayları


 Hepsi Gerçek

 Hepsi Gerçek

 Hepsi Gerçek


Film Fragmanı


Film İndir


Rar Şifresi: filmbol.org


Uptobox ile indir

1Fichier ile indir

1Fichier'den İndiremiyor musun? Tıklayın!












Şuan Online!
Rapor Et!
Şuan Online!
BroserBros Kurucu Admin
*******
Admin
01.06.2021 Yönetici Notu:

Kırık linkler kontrol edildi, kaldırıldı ve yenilendi. Tüm linkler tamamen çalışır durumda.


Hızlı Menü: