⤤ Premium'a Yükselt
Filmbol Forum Film İndir 720P v Madagaskar Penguenleri (Penguins of Madagascar) - 2014 - TR+ORG - 720P | tt1911658

Filmbol TV kullanıma açıldı. Bu adresten giriş yapabilirsin: Giriş





Madagaskar Penguenleri (Penguins of Madagascar) - 2014 - TR+ORG - 720P | tt1911658
BroserBros
Madagaskar Penguenleri (Penguins of Madagascar) - 2014 - TR+ORG - 720P | tt1911658
11
1499
  • Derecelendirme: 0/5 - 0 oy
  • 1
  • 2
  • 3
  • 4
  • 5
Konuyu Okuyanlar:1 Ziyaretçi
Şuan Online!
Filmin Yayınlanma Tarihi: 2014 
WWW
Rapor Et!
Şuan Online!
BroserBros Kurucu Admin
*******
Admin



 Madagaskar Penguenleri



Başarılı ajan doğulmaz. Çünkü başarılı ajanlar yumurtadan çıkar! Madagascar’ın muhteşem ajanlarıyla tanışın: Skipper, Kowalski, Rico and Private.Bu seçkin penguenler, gizli bir örgütün kuvvetlerine katılırlar. İsmi Kuzey Rüzgarı olan bu organizasyona lideri yakışıklı ve kuvvetli ismi gizli bir Ajan (bize kalsa ismini söyleyeceğiz de…sonra yani..bilirsiniz) liderlik etmektedir. Bu iki takımın bir an önce güçlerini birleştirip dünyayı yok etmek için hain planlar peşinde olan korkunç Dr. Octavius Brine’ı durdurması gerekmektedir.
Madagaskar serisinin sevilen Penguenleri Skipper, Kowalski, Rico ve Private’in casusluk macerasına odaklanacağımız filmin orijinal seslendirme kadrosunda Benedict Cumberbatch, Eric Darnell, John Malkovich ve Simon J. Smith yer alıyor.

Madagaskar Penguenleri (2014) (Penguins of Madagascar) | tt1911658 Filmi Imdb'den 85,000 kişi tarafından oylandı ve 6,7 puan aldı. Bu film için editör puanı %78 olarak belirlendi. İyi Seyirler!

Teknik Detaylar

Kod :
General
Unique ID                                : 149457641623956568126322471044216758771 (0x70707EA76B3347A90C314D79331BA1F3)
Complete name                            : /home/BroserBros/Desktop/5/Madagaskar.Penguenleri.2014.720p.BluRay.x264.TR.ENG.Filmbol.mkv
Format                                   : Matroska
Format version                           : Version 4
File size                                : 1 002 MiB
Duration                                 : 1 h 32 min
Overall bit rate                         : 1 517 kb/s
Movie name                               : Madagaskar Penguenleri - Penguins of Madagascar - 2014 | Filmbol.org
Encoded date                             : UTC 2021-05-30 08:14:14
Writing application                      : mkvmerge v53.0.0 ('Fool's Gold') 64-bit
Writing library                          : libebml v1.4.1 + libmatroska v1.6.2

Video
ID                                       : 1
Format                                   : AVC
Format/Info                              : Advanced Video Codec
Format profile                           : [email protected]
Format settings                          : CABAC / 4 Ref Frames
Format settings, CABAC                   : Yes
Format settings, Reference frames        : 4 frames
Codec ID                                 : V_MPEG4/ISO/AVC
Duration                                 : 1 h 32 min
Bit rate                                 : 1 039 kb/s
Width                                    : 1 280 pixels
Height                                   : 690 pixels
Display aspect ratio                     : 1.85:1
Frame rate mode                          : Constant
Frame rate                               : 23.976 (24000/1001) FPS
Original frame rate                      : 23.976 (23976/1000) FPS
Color space                              : YUV
Chroma subsampling                       : 4:2:0
Bit depth                                : 8 bits
Scan type                                : Progressive
Bits/(Pixel*Frame)                       : 0.049
Stream size                              : 686 MiB (69%)
Title                                    : 720P - Filmbol.org
Writing library                          : x264 core 123 r2189 35cf912
Encoding settings                        : cabac=1 / ref=4 / deblock=1:-1:-1 / analyse=0x3:0x133 / me=umh / subme=9 / psy=1 / psy_rd=1.00:0.15 / mixed_ref=1 / me_range=24 / chroma_me=1 / trellis=2 / 8x8dct=1 / cqm=0 / deadzone=21,11 / fast_pskip=0 / chroma_qp_offset=-3 / threads=48 / sliced_threads=0 / nr=0 / decimate=1 / interlaced=0 / bluray_compat=0 / constrained_intra=0 / bframes=3 / b_pyramid=2 / b_adapt=2 / b_bias=0 / direct=3 / weightb=1 / open_gop=0 / weightp=2 / keyint=250 / keyint_min=23 / scenecut=40 / intra_refresh=0 / rc_lookahead=60 / rc=2pass / mbtree=1 / bitrate=1039 / ratetol=1.0 / qcomp=0.60 / qpmin=0 / qpmax=69 / qpstep=4 / cplxblur=20.0 / qblur=0.5 / vbv_maxrate=31250 / vbv_bufsize=31250 / nal_hrd=none / ip_ratio=1.40 / aq=1:1.00
Default                                  : Yes
Forced                                   : No
Color range                              : Limited
Color primaries                          : BT.709
Matrix coefficients                      : BT.709

Audio #1
ID                                       : 2
Format                                   : AC-3
Format/Info                              : Audio Coding 3
Commercial name                          : Dolby Digital
Codec ID                                 : A_AC3
Duration                                 : 1 h 31 min
Bit rate mode                            : Constant
Bit rate                                 : 384 kb/s
Channel(s)                               : 6 channels
Channel layout                           : L R C LFE Ls Rs
Sampling rate                            : 48.0 kHz
Frame rate                               : 31.250 FPS (1536 SPF)
Compression mode                         : Lossy
Delay relative to video                  : -83 ms
Stream size                              : 252 MiB (25%)
Title                                    : Türkçe - Filmbol.org
Language                                 : Turkish
Service kind                             : Complete Main
Default                                  : Yes
Forced                                   : No

Audio #2
ID                                       : 3
Format                                   : AAC LC
Format/Info                              : Advanced Audio Codec Low Complexity
Codec ID                                 : A_AAC-2
Duration                                 : 1 h 31 min
Bit rate                                 : 93.7 kb/s
Channel(s)                               : 2 channels
Channel layout                           : L R
Sampling rate                            : 48.0 kHz
Frame rate                               : 46.875 FPS (1024 SPF)
Compression mode                         : Lossy
Delay relative to video                  : -83 ms
Stream size                              : 61.5 MiB (6%)
Title                                    : Orijinal Dil - Filmbol.org
Language                                 : English
Default                                  : No
Forced                                   : No

Text
ID                                       : 4
Format                                   : UTF-8
Codec ID                                 : S_TEXT/UTF8
Codec ID/Info                            : UTF-8 Plain Text
Duration                                 : 1 h 23 min
Bit rate                                 : 67 b/s
Count of elements                        : 1051
Stream size                              : 41.5 KiB (0%)
Title                                    : Türkçe - Filmbol.org
Language                                 : Turkish
Default                                  : No
Forced                                   : No

Film Detayları


 Madagaskar Penguenleri

 Madagaskar Penguenleri

 Madagaskar Penguenleri


Film Fragmanı


Film İndir


Rar Şifresi: filmbol.org


Uptobox ile indir

1Fichier ile indir

1Fichier'den İndiremiyor musun? Tıklayın!












Şuan Offine!
Rapor Et!
Şuan Offine!
aaaas Üye
*
Üye
  • Konular0
  • Mesajlar1
  • Rep puanı 0
asssssssa
Şuan Offine!
Rapor Et!
Şuan Offine!
tenteci Uzman Üye
**
Uzman Üye
  • Konular0
  • Mesajlar19
  • Rep puanı 0
teşekkürler
Şuan Offine!
Rapor Et!
Şuan Offine!
berkemir Uzman Üye
**
Uzman Üye
  • Konular0
  • Mesajlar12
  • Rep puanı 0
teşekkurler
Şuan Offine!
Rapor Et!
Şuan Offine!
Said Uzman Üye
**
Uzman Üye
  • Konular0
  • Mesajlar9
  • Rep puanı 0
Yumku
Şuan Online!
Rapor Et!
Şuan Online!
BroserBros Kurucu Admin
*******
Admin
31.05.2021 Yönetici Notu:

Kırık linkler kontrol edildi, kaldırıldı ve yenilendi. Tüm linkler tamamen çalışır durumda.
Şuan Offine!
Rapor Et!
Şuan Offine!
miracadam76 Cezalı Üye
  • Konular0
  • Mesajlar8
mükkemmel
Şuan Offine!
Rapor Et!
Şuan Offine!
Eray Üye
*
Üye
  • Konular0
  • Mesajlar1
  • Rep puanı 0
Eskidende izlemiştim mükemmel! Heart
Şuan Offine!
Rapor Et!
Şuan Offine!
beyazdg Üye
*
Üye
  • Konular0
  • Mesajlar12
  • Rep puanı 0
Teşekkürler.
Şuan Offine!
Rapor Et!
Şuan Offine!
mehmet123456 Üye
*
Üye
  • Konular0
  • Mesajlar26
  • Rep puanı 0
Teşekkürler.


Hızlı Menü: