⤤ Premium'a Yükselt
Filmbol Forum Film İndir BRRip XviD v Blade Runner 2049: Bıçak Sırtı (Blade Runner 2049) - 2017 - TR - BRRip XviD | tt1856101

Filmbol TV kullanıma açıldı. Bu adresten giriş yapabilirsin: Giriş





Blade Runner 2049: Bıçak Sırtı (Blade Runner 2049) - 2017 - TR - BRRip XviD | tt1856101
BroserBros
Blade Runner 2049: Bıçak Sırtı (Blade Runner 2049) - 2017 - TR - BRRip XviD | tt1856101
4
717
  • Derecelendirme: 0/5 - 0 oy
  • 1
  • 2
  • 3
  • 4
  • 5
Konuyu Okuyanlar:1 Ziyaretçi
Şuan Online!
Filmin Yayınlanma Tarihi: 2017 
WWW
Rapor Et!
Şuan Online!
BroserBros Kurucu Admin
*******
Admin



 Blade Runner 2049: Bıçak Sırtı



Blade Runner 2049’da ilk filmdeki hikayenin üzerinden geçen 30 yıl sonrası anlatılmaktadır. Los Angeles Polis Departmanı’nda görev yapan Memur K, toplum yaşamını kaosa sokacak olan ve uzun zamandır saklı kalan bir sırrı açığa çıkartır. Bir felaketi önleyebilmesi için eski ödül avcısı Rick Deckard’ı bulup ondan bazı sorularına yanıt alması şarttır.
Başrollerinde Ryan Gosling ve Rick Deckard rolünde Harrison Ford’un boy göstereceği filmin kadrosunda Jared Leto, Robin Wright, Ana de Armas, Carla Juri, Mackenzie Davis, Barkhad Abdi, David Dastmalchian, Hiam Abbass, Lennie James ve Dave Bautista’yı bulunduran devam halkasının yönetmenliğini Denis Villeneuve üstleniyor. Filmin senaryosunda ise Hampton Fancher ve Michael Green imzası var.

Blade Runner 2049: Bıçak Sırtı (2017) (Blade Runner 2049) | tt1856101 Filmi Imdb'den 500,000 kişi tarafından oylandı ve 8,0 puan aldı. Bu film için editör puanı %91 olarak belirlendi. İyi Seyirler!

Teknik Detaylar

Kod :
General
Unique ID                                : 248112196816920402541411456082727205007 (0xBAA8ABC2D68194F39F740ED80134F88F)
Complete name                            : /home/BroserBros/Desktop/4/Blade.Runner.2049.Bıçak.Sırtı.2017.BRRip.XviD.TR.Filmbol.avi
Format                                   : Matroska
Format version                           : Version 4
File size                                : 1.39 GiB
Duration                                 : 2 h 43 min
Overall bit rate                         : 1 217 kb/s
Movie name                               : Blade Runner 2049: Bıçak Sırtı - 2017 | Filmbol.org
Encoded date                             : UTC 2021-05-11 11:53:02
Writing application                      : mkvmerge v53.0.0 ('Fool's Gold') 64-bit
Writing library                          : libebml v1.4.1 + libmatroska v1.6.2
FileExtension_Invalid                    : mkv mk3d mka mks

Video
ID                                       : 1
Format                                   : MPEG-4 Visual
Format profile                           : Advanced [email protected]
Format settings                          : BVOP2
Format settings, BVOP                    : 2
Format settings, QPel                    : No
Format settings, GMC                     : No warppoints
Format settings, Matrix                  : Default (H.263)
Muxing mode                              : Packed bitstream
Codec ID                                 : V_MS/VFW/FOURCC / XVID
Codec ID/Hint                            : XviD
Duration                                 : 2 h 43 min
Bit rate                                 : 1 087 kb/s
Width                                    : 720 pixels
Height                                   : 304 pixels
Display aspect ratio                     : 2.35:1
Frame rate mode                          : Constant
Frame rate                               : 23.976 (23976/1000) FPS
Color space                              : YUV
Chroma subsampling                       : 4:2:0
Bit depth                                : 8 bits
Scan type                                : Progressive
Compression mode                         : Lossy
Bits/(Pixel*Frame)                       : 0.207
Stream size                              : 1.24 GiB (89%)
Title                                    : Blade Runner 2049: Bıçak Sırtı - 2017 | Filmbol.org
Writing library                          : XviD 66
Default                                  : Yes
Forced                                   : No

Audio
ID                                       : 2
Format                                   : MPEG Audio
Format version                           : Version 1
Format profile                           : Layer 3
Format settings                          : Joint stereo / MS Stereo
Codec ID                                 : A_MPEG/L3
Codec ID/Hint                            : MP3
Duration                                 : 2 h 43 min
Bit rate mode                            : Constant
Bit rate                                 : 128 kb/s
Channel(s)                               : 2 channels
Sampling rate                            : 48.0 kHz
Frame rate                               : 41.667 FPS (1152 SPF)
Compression mode                         : Lossy
Stream size                              : 150 MiB (11%)
Title                                    : Blade Runner 2049: Bıçak Sırtı - 2017 | Filmbol.org
Default                                  : Yes
Forced                                   : No

Film Detayları


 Blade Runner 2049: Bıçak Sırtı

 Blade Runner 2049: Bıçak Sırtı

 Blade Runner 2049: Bıçak Sırtı


Film Fragmanı


Film İndir


Rar Şifresi: filmbol.org



Uptobox ile indir

1Fichier ile indir

1Fichier'den İndiremiyor musun? Tıklayın!












Şuan Offine!
Rapor Et!
Şuan Offine!
Megalodon Uzman Üye
**
Uzman Üye
  • Konular0
  • Mesajlar21
  • Rep puanı 0
Teşekkürler...
Şuan Offine!
Rapor Et!
Şuan Offine!
Furkan61 Cezalı Üye
  • Konular0
  • Mesajlar288
güzel
Şuan Online!
Rapor Et!
Şuan Online!
BroserBros Kurucu Admin
*******
Admin
12.05.2021 Yönetici Notu:

Kırık linkler kontrol edildi, kaldırıldı ve yenilendi. Tüm linkler tamamen çalışır durumda.
Şuan Offine!
Rapor Et!
Şuan Offine!
elico0 Üye
*
Üye
  • Konular0
  • Mesajlar7
  • Rep puanı 0
Teşekkürler.


Hızlı Menü: