⤤ Premium'a Yükselt
Filmbol Forum Film İndir 720P v Küçük Beyaz Yalanlar Devam Ediyor (Nous finirons ensemble) - 2019 - TR+ORG - 720P | tt8201404

Filmbol TV kullanıma açıldı. Bu adresten giriş yapabilirsin: Giriş





Küçük Beyaz Yalanlar Devam Ediyor (Nous finirons ensemble) - 2019 - TR+ORG - 720P | tt8201404
BroserBros
Küçük Beyaz Yalanlar Devam Ediyor (Nous finirons ensemble) - 2019 - TR+ORG - 720P | tt8201404
1
400
  • Derecelendirme: 0/5 - 0 oy
  • 1
  • 2
  • 3
  • 4
  • 5
Konuyu Okuyanlar:2 Ziyaretçi
Şuan Online!
Filmin Yayınlanma Tarihi: 2019 
WWW
Rapor Et!
Şuan Online!
BroserBros Kurucu Admin
*******
Admin



 Küçük Beyaz Yalanlar Devam Ediyor



Küçük Beyaz Yalanlar Devam Ediyor, yıllar sonra yeniden bir araya gelen insanların hikayesini konu ediyor. Max, hayatına deniz kenarında bir yerde devam etmek için sevdiklerini adında bırakarak yeni hayatına adım atar. Bu durum geçmişte birçok anıyı paylaştığı arkadaşları ile arasına mesafe girmesine neden olur. Max, aradan geçen birkaç yıl sonra doğum gününde büyük bir sürprizle karşılaşır. Yıllardır görüşmediği arkadaşları Max’ın doğum günü için toplanıp evine ziyerete gelmiştir. Üstelik gelenlerin sayısı da bir hayli fazladır. Yeniden bir araya gelmenin heyecanı içinde olan ekip, eski günleri yad ettiğinde kendilerini beklenmedik durumları içerisinde bulur.

Küçük Beyaz Yalanlar Devam Ediyor (2019) (Nous finirons ensemble) | tt8201404 Filmi Imdb'den 4,000 kişi tarafından oylandı ve 6,5 puan aldı. Bu film için editör puanı %67 olarak belirlendi. İyi Seyirler!

Teknik Detaylar

Kod :
General
Unique ID                                : 160112422004607641921158732250454295190 (0x787487E28E10376E14D6ADD58F1E0296)
Complete name                            : /home/BroserBros/Desktop/5/Küçük.Beyaz.Yalanlar.Devam.Ediyor.2019.720p.BluRay.x264.TR.ENG.Filmbol.mkv
Format                                   : Matroska
Format version                           : Version 4
File size                                : 1.44 GiB
Duration                                 : 2 h 14 min
Overall bit rate                         : 1 536 kb/s
Movie name                               : Küçük Beyaz Yalanlar Devam Ediyor - Little White Lies - 2019
Encoded date                             : UTC 2021-05-31 15:52:12
Writing application                      : mkvmerge v53.0.0 ('Fool's Gold') 64-bit
Writing library                          : libebml v1.4.1 + libmatroska v1.6.2

Video
ID                                       : 1
Format                                   : AVC
Format/Info                              : Advanced Video Codec
Format profile                           : [email protected]
Format settings                          : CABAC / 4 Ref Frames
Format settings, CABAC                   : Yes
Format settings, Reference frames        : 4 frames
Codec ID                                 : V_MPEG4/ISO/AVC
Duration                                 : 2 h 14 min
Bit rate                                 : 1 150 kb/s
Width                                    : 1 280 pixels
Height                                   : 534 pixels
Display aspect ratio                     : 2.40:1
Original display aspect ratio            : 2.40:1
Frame rate mode                          : Constant
Frame rate                               : 23.976 (24000/1001) FPS
Color space                              : YUV
Chroma subsampling                       : 4:2:0
Bit depth                                : 8 bits
Scan type                                : Progressive
Bits/(Pixel*Frame)                       : 0.070
Stream size                              : 1.08 GiB (75%)
Title                                    : Küçük Beyaz Yalanlar Devam Ediyor - Little White Lies - 2019
Writing library                          : x264 core 158
Encoding settings                        : cabac=1 / ref=4 / deblock=1:-1:-1 / analyse=0x3:0x133 / me=umh / subme=9 / psy=1 / psy_rd=1.00:0.15 / mixed_ref=1 / me_range=24 / chroma_me=1 / trellis=2 / 8x8dct=1 / cqm=0 / deadzone=21,11 / fast_pskip=0 / chroma_qp_offset=-3 / threads=12 / lookahead_threads=1 / sliced_threads=0 / nr=0 / decimate=1 / interlaced=0 / bluray_compat=0 / constrained_intra=0 / bframes=3 / b_pyramid=2 / b_adapt=2 / b_bias=0 / direct=3 / weightb=1 / open_gop=0 / weightp=2 / keyint=250 / keyint_min=23 / scenecut=40 / intra_refresh=0 / rc_lookahead=60 / rc=2pass / mbtree=1 / bitrate=1150 / ratetol=1.0 / qcomp=0.60 / qpmin=0 / qpmax=69 / qpstep=4 / cplxblur=20.0 / qblur=0.5 / vbv_maxrate=31250 / vbv_bufsize=31250 / nal_hrd=none / filler=0 / ip_ratio=1.40 / aq=1:1.00
Default                                  : Yes
Forced                                   : No

Audio #1
ID                                       : 2
Format                                   : AC-3
Format/Info                              : Audio Coding 3
Commercial name                          : Dolby Digital
Codec ID                                 : A_AC3
Duration                                 : 2 h 14 min
Bit rate mode                            : Constant
Bit rate                                 : 192 kb/s
Channel(s)                               : 2 channels
Channel layout                           : L R
Sampling rate                            : 48.0 kHz
Frame rate                               : 31.250 FPS (1536 SPF)
Compression mode                         : Lossy
Stream size                              : 185 MiB (13%)
Title                                    : Küçük Beyaz Yalanlar Devam Ediyor - Little White Lies - 2019
Language                                 : Turkish
Service kind                             : Complete Main
Default                                  : Yes
Forced                                   : No

Audio #2
ID                                       : 3
Format                                   : AC-3
Format/Info                              : Audio Coding 3
Commercial name                          : Dolby Digital
Codec ID                                 : A_AC3
Duration                                 : 2 h 14 min
Bit rate mode                            : Constant
Bit rate                                 : 192 kb/s
Channel(s)                               : 2 channels
Channel layout                           : L R
Sampling rate                            : 48.0 kHz
Frame rate                               : 31.250 FPS (1536 SPF)
Compression mode                         : Lossy
Stream size                              : 185 MiB (13%)
Title                                    : Küçük Beyaz Yalanlar Devam Ediyor - Little White Lies - 2019
Language                                 : French
Service kind                             : Complete Main
Default                                  : No
Forced                                   : No

Film Detayları


 Küçük Beyaz Yalanlar Devam Ediyor

 Küçük Beyaz Yalanlar Devam Ediyor

 Küçük Beyaz Yalanlar Devam Ediyor


Film Fragmanı


Film İndir


Rar Şifresi: filmbol.org


Uptobox ile indir

1Fichier ile indir

1Fichier'den İndiremiyor musun? Tıklayın!












Şuan Online!
Rapor Et!
Şuan Online!
BroserBros Kurucu Admin
*******
Admin
01.06.2021 Yönetici Notu:

Kırık linkler kontrol edildi, kaldırıldı ve yenilendi. Tüm linkler tamamen çalışır durumda.


Hızlı Menü: