⤤ Premium'a Yükselt
Filmbol Forum Film İndir BRRip XviD v İkizler Projesi (Gemini Man) - 2019 - TR - BRRip XviD | tt1025100

Filmbol TV kullanıma açıldı. Bu adresten giriş yapabilirsin: Giriş





İkizler Projesi (Gemini Man) - 2019 - TR - BRRip XviD | tt1025100
BroserBros
İkizler Projesi (Gemini Man) - 2019 - TR - BRRip XviD | tt1025100
7
755
  • Derecelendirme: 0/5 - 0 oy
  • 1
  • 2
  • 3
  • 4
  • 5
Konuyu Okuyanlar:2 Ziyaretçi
Şuan Online!
Filmin Yayınlanma Tarihi: 2019 
WWW
Rapor Et!
Şuan Online!
BroserBros Kurucu Admin
*******
Admin



 İkizler Projesi



İkizler Projesi, eski bir kiralık katilin peşine düşen klonundan kurtulmak için verdiği mücadeleyi konu ediyor. Henry, işinde uzman olan bir kiralık katildir. Artık bu işlerden kurtulup hayatına yeni bir yön vermek isteyen Henry, bir anda kendisini büyük bir girdabın içinde bulur. Kiralık katilin peşine, kendisini öldürmek için gizli bir ajan düşmüştür. Üstelik peşindeki ajan, Henry’den 25 yıl önce alınan genlerle oluşturulan bir klondur. Henry, her hareketini önceden tahmin edebilen bu klonunda kurtulmak için zorlu bir savaş vermek zorunda kalır. Filmin yönetmenliğini, daha önce “Pi’nin Yaşamı” ve “Kaplan ve Ejderha”yı yöneten Ang Lee üstleniyor.

İkizler Projesi (2019) (Gemini Man) | tt1025100 Filmi Imdb'den 100,000 kişi tarafından oylandı ve 5,7 puan aldı. Bu film için editör puanı %76 olarak belirlendi. İyi Seyirler!

Teknik Detaylar

Kod :
General
Unique ID                                : 236258584295011459799079480894649133673 (0xB1BDBF8AC56AB4125488E18CB8F9EA69)
Complete name                            : /home/BroserBros/Desktop/2/İkizler.Projesi.2019.BRRip.XviD.TR.Filmbol.avi
Format                                   : Matroska
Format version                           : Version 4
File size                                : 1.37 GiB
Duration                                 : 1 h 57 min
Overall bit rate                         : 1 679 kb/s
Movie name                               : İkizler Projesi - Gemini Man - 2019 | Filmbol.org
Encoded date                             : UTC 2021-06-02 12:18:24
Writing application                      : mkvmerge v53.0.0 ('Fool's Gold') 64-bit
Writing library                          : libebml v1.4.1 + libmatroska v1.6.2
FileExtension_Invalid                    : mkv mk3d mka mks

Video
ID                                       : 1
Format                                   : MPEG-4 Visual
Format profile                           : Advanced [email protected]
Format settings                          : BVOP2 / Custom Matrix
Format settings, BVOP                    : 2
Format settings, QPel                    : No
Format settings, GMC                     : No warppoints
Format settings, Matrix                  : Custom
Muxing mode                              : Packed bitstream
Codec ID                                 : V_MS/VFW/FOURCC / XVID
Codec ID/Hint                            : XviD
Duration                                 : 1 h 57 min
Bit rate                                 : 1 549 kb/s
Width                                    : 720 pixels
Height                                   : 384 pixels
Display aspect ratio                     : 1.85:1
Frame rate mode                          : Constant
Frame rate                               : 23.976 (24000/1001) FPS
Color space                              : YUV
Chroma subsampling                       : 4:2:0
Bit depth                                : 8 bits
Scan type                                : Progressive
Compression mode                         : Lossy
Bits/(Pixel*Frame)                       : 0.234
Stream size                              : 1.27 GiB (92%)
Title                                    : İkizler Projesi - Gemini Man - 2019 | Filmbol.org
Writing library                          : XviD 1.2.1 (UTC 2008-12-04)
Default                                  : Yes
Forced                                   : No

Audio
ID                                       : 2
Format                                   : MPEG Audio
Format version                           : Version 1
Format profile                           : Layer 3
Format settings                          : Joint stereo
Codec ID                                 : A_MPEG/L3
Codec ID/Hint                            : MP3
Duration                                 : 1 h 57 min
Bit rate mode                            : Constant
Bit rate                                 : 128 kb/s
Channel(s)                               : 2 channels
Sampling rate                            : 48.0 kHz
Frame rate                               : 41.667 FPS (1152 SPF)
Compression mode                         : Lossy
Stream size                              : 107 MiB (8%)
Title                                    : İkizler Projesi - Gemini Man - 2019 | Filmbol.org
Writing library                          : LAME3.100
Encoding settings                        : -m j -V 4 -q 2 -lowpass 17 -b 128
Default                                  : Yes
Forced                                   : No

Film Detayları


 İkizler Projesi

 İkizler Projesi

 İkizler Projesi


Film Fragmanı


Film İndir


Rar Şifresi: filmbol.org



Uptobox ile indir

1Fichier ile indir

1Fichier'den İndiremiyor musun? Tıklayın!












Şuan Offine!
Rapor Et!
Şuan Offine!
ercan Uzman Üye
**
Uzman Üye
  • Konular0
  • Mesajlar24
  • Rep puanı 0
tşk...
Şuan Offine!
Rapor Et!
Şuan Offine!
badboys755 Uzman Üye
**
Uzman Üye
  • Konular0
  • Mesajlar19
  • Rep puanı 0
tsekurler
Şuan Offine!
Rapor Et!
Şuan Offine!
Furkan61 Cezalı Üye
  • Konular0
  • Mesajlar288
teşekkürler
Şuan Offine!
Rapor Et!
Şuan Offine!
Furkan61 Cezalı Üye
  • Konular0
  • Mesajlar288
linkler kırık düzeltme sansınız varmı
Şuan Online!
Rapor Et!
Şuan Online!
BroserBros Kurucu Admin
*******
Admin
(31-05-2021, Saat: 17:54)Furkan61 Adlı Kullanıcıdan Alıntı: linkler kırık düzeltme sansınız varmı

Listeye alındı. Yakın bir zamanda yenilenir.
Şuan Online!
Rapor Et!
Şuan Online!
BroserBros Kurucu Admin
*******
Admin
03.06.2021 Yönetici Notu:

Kırık linkler kontrol edildi, kaldırıldı ve yenilendi. Tüm linkler tamamen çalışır durumda. @Furkan61
Şuan Offine!
Rapor Et!
Şuan Offine!
tebessum01 Üye
*
Üye
  • Konular0
  • Mesajlar10
  • Rep puanı 0
Teşekkürler.


Hızlı Menü: