⤤ Premium'a Yükselt
Filmbol Forum Film İndir 1080P v Joker (Joker) - 2019 - TR+ORG - 1080P | tt7286456

Filmbol TV kullanıma açıldı. Bu adresten giriş yapabilirsin: Giriş





Joker (Joker) - 2019 - TR+ORG - 1080P | tt7286456
BroserBros
Joker (Joker) - 2019 - TR+ORG - 1080P | tt7286456
32
3140
  • Derecelendirme: 0/5 - 0 oy
  • 1
  • 2
  • 3
  • 4
  • 5
Konuyu Okuyanlar:3 Ziyaretçi
Şuan Online!
Filmin Yayınlanma Tarihi: 2019 
WWW
Rapor Et!
Şuan Online!
BroserBros Kurucu Admin
*******
Admin



 Joker



Joker, başarısız bir komedyen olan Arthur Fleck’in hayatına odaklanıyor. Toplum tarafından dışlanan bir adam olan Arthur, hayatta yapayalnızdır. Sürekli bir bağ kurma arayışında olan Arthur, yaşamını taktığı iki maske ile geçirir. Gündüzleri, geçimini sağlamak için palyaço maskesini yüzüne takan Arthur, geceleri ise asla üzerinden silip atamayacağı bir maske takar. Babasız büyüyen Arthur’u en yakın arkadaşı olan annesi Happy adıyla çağırır. Bu lakap, Arthur’un içindeki acıyı gizlemesine yardımcı olur. Ancak maruz kaldığı zorbalıklar, onun gitgide toluma aykırı bir adam haline gelmesine neden olur. Yavaş yavaş psikolojik olarak tekinsiz sulara yelken açılan Arthur, bir süre sonra kendisini Gotham Şehri’nde suç ve kaosun içinde bulur. Arthur, zamanla kendi kimliğinden uzaklaşıp Joker karakterine bürünür.

Joker (2019) (Joker) | tt7286456 Filmi Imdb'den 1,000,000 kişi tarafından oylandı ve 8,4 puan aldı. Bu film için editör puanı %96 olarak belirlendi. İyi Seyirler!

Teknik Detaylar

Kod :
General
Unique ID                                : 114893665117472186713712501379651524601 (0x566FB70AB31D125FECC24AD4E9DED7F9)
Complete name                            : /home/BroserBros/Desktop/4/Joker.2019.1080p.BluRay.x264.TR.ENG.Filmbol.mkv
Format                                   : Matroska
Format version                           : Version 4
File size                                : 2.11 GiB
Duration                                 : 2 h 1 min
Overall bit rate                         : 2 485 kb/s
Movie name                               : Joker - 2019 | Filmbol.org
Encoded date                             : UTC 2021-05-31 15:30:30
Writing application                      : mkvmerge v53.0.0 ('Fool's Gold') 64-bit
Writing library                          : libebml v1.4.1 + libmatroska v1.6.2

Video
ID                                       : 1
Format                                   : AVC
Format/Info                              : Advanced Video Codec
Format profile                           : [email protected]
Format settings                          : CABAC / 4 Ref Frames
Format settings, CABAC                   : Yes
Format settings, Reference frames        : 4 frames
Codec ID                                 : V_MPEG4/ISO/AVC
Duration                                 : 2 h 1 min
Bit rate                                 : 2 100 kb/s
Width                                    : 1 920 pixels
Height                                   : 1 024 pixels
Display aspect ratio                     : 1.85:1
Frame rate mode                          : Constant
Frame rate                               : 23.976 (24000/1001) FPS
Color space                              : YUV
Chroma subsampling                       : 4:2:0
Bit depth                                : 8 bits
Scan type                                : Progressive
Bits/(Pixel*Frame)                       : 0.045
Stream size                              : 1.79 GiB (84%)
Title                                    : Joker - 2019 | Filmbol.org
Writing library                          : x264 core 158
Encoding settings                        : cabac=1 / ref=4 / deblock=1:-1:-1 / analyse=0x3:0x133 / me=umh / subme=9 / psy=1 / psy_rd=1.00:0.15 / mixed_ref=1 / me_range=24 / chroma_me=1 / trellis=2 / 8x8dct=1 / cqm=0 / deadzone=21,11 / fast_pskip=0 / chroma_qp_offset=-3 / threads=18 / lookahead_threads=1 / sliced_threads=0 / nr=0 / decimate=1 / interlaced=0 / bluray_compat=0 / constrained_intra=0 / bframes=3 / b_pyramid=2 / b_adapt=2 / b_bias=0 / direct=3 / weightb=1 / open_gop=0 / weightp=2 / keyint=250 / keyint_min=23 / scenecut=40 / intra_refresh=0 / rc_lookahead=60 / rc=2pass / mbtree=1 / bitrate=2100 / ratetol=1.0 / qcomp=0.60 / qpmin=0 / qpmax=69 / qpstep=4 / cplxblur=20.0 / qblur=0.5 / vbv_maxrate=31250 / vbv_bufsize=31250 / nal_hrd=none / filler=0 / ip_ratio=1.40 / aq=1:1.00
Default                                  : Yes
Forced                                   : No

Audio #1
ID                                       : 2
Format                                   : AC-3
Format/Info                              : Audio Coding 3
Commercial name                          : Dolby Digital
Codec ID                                 : A_AC3
Duration                                 : 2 h 1 min
Bit rate mode                            : Constant
Bit rate                                 : 192 kb/s
Channel(s)                               : 2 channels
Channel layout                           : L R
Sampling rate                            : 48.0 kHz
Frame rate                               : 31.250 FPS (1536 SPF)
Compression mode                         : Lossy
Stream size                              : 167 MiB (8%)
Title                                    : Joker - 2019 | Filmbol.org
Language                                 : Turkish
Service kind                             : Complete Main
Default                                  : Yes
Forced                                   : No

Audio #2
ID                                       : 3
Format                                   : AC-3
Format/Info                              : Audio Coding 3
Commercial name                          : Dolby Digital
Codec ID                                 : A_AC3
Duration                                 : 2 h 1 min
Bit rate mode                            : Constant
Bit rate                                 : 192 kb/s
Channel(s)                               : 2 channels
Channel layout                           : L R
Sampling rate                            : 48.0 kHz
Frame rate                               : 31.250 FPS (1536 SPF)
Compression mode                         : Lossy
Stream size                              : 167 MiB (8%)
Title                                    : Joker - 2019 | Filmbol.org
Language                                 : English
Service kind                             : Complete Main
Default                                  : No
Forced                                   : No

Text
ID                                       : 4
Format                                   : UTF-8
Codec ID                                 : S_TEXT/UTF8
Codec ID/Info                            : UTF-8 Plain Text
Duration                                 : 1 h 55 min
Bit rate                                 : 47 b/s
Count of elements                        : 1113
Stream size                              : 40.0 KiB (0%)
Title                                    : Joker - 2019 | Filmbol.org
Language                                 : Turkish
Default                                  : No
Forced                                   : No

Film Detayları


 Joker

 Joker

 Joker


Film Fragmanı


Film İndir


Rar Şifresi: filmbol.org


Uptobox ile indir

1Fichier ile indir

1Fichier'den İndiremiyor musun? Tıklayın!












Şuan Offine!
Rapor Et!
Şuan Offine!
ahmetyee1 Süper Üye
***
Super Üye
  • Konular2
  • Mesajlar75
  • Rep puanı 0
ben de bunu bekliyordum
Şuan Offine!
Rapor Et!
Şuan Offine!
Filmmakinası Üye
*
Üye
  • Konular0
  • Mesajlar14
  • Rep puanı 0
asdsdffsdfgdgdfbh
Şuan Offine!
Rapor Et!
Şuan Offine!
Rustu_1905 Uzman Üye
**
Uzman Üye
  • Konular0
  • Mesajlar14
  • Rep puanı 0
sonunda
Şuan Offine!
Rapor Et!
Şuan Offine!
Grazes Üye
*
Üye
  • Konular0
  • Mesajlar5
  • Rep puanı 0
sağolun
Şuan Offine!
Rapor Et!
Şuan Offine!
Murat94 Süper Üye
***
Super Üye
  • Konular0
  • Mesajlar34
  • Rep puanı 0
Elinize sağlık
Şuan Offine!
Rapor Et!
Şuan Offine!
ghostkronos24 Uzman Üye
**
Uzman Üye
  • Konular0
  • Mesajlar21
  • Rep puanı 0
çok güzel film izleyin mutlaka
Şuan Offine!
Rapor Et!
Şuan Offine!
mhmmdysf Uzman Üye
**
Uzman Üye
  • Konular0
  • Mesajlar6
  • Rep puanı 0
Daha yeni izleme şansım oldu ama güzel olduğuna eminim
Şuan Offine!
Rapor Et!
Şuan Offine!
caner Süper Üye
***
Super Üye
  • Konular0
  • Mesajlar51
  • Rep puanı 0
teşekkürler
Şuan Offine!
Rapor Et!
Şuan Offine!
afkur Uzman Üye
**
Uzman Üye
  • Konular0
  • Mesajlar11
  • Rep puanı 0
bi bakalım bakalım


Hızlı Menü: