⤤ Premium'a Yükselt
Filmbol Forum Film İndir BRRip XviD v Steve McQueen'i Bulmak (Finding Steve McQueen) - 2019 - TR - BRRip XviD | tt6032328

Filmbol TV kullanıma açıldı. Bu adresten giriş yapabilirsin: Giriş





Steve McQueen'i Bulmak (Finding Steve McQueen) - 2019 - TR - BRRip XviD | tt6032328
BroserBros
Steve McQueen'i Bulmak (Finding Steve McQueen) - 2019 - TR - BRRip XviD | tt6032328
2
650
  • Derecelendirme: 0/5 - 0 oy
  • 1
  • 2
  • 3
  • 4
  • 5
Konuyu Okuyanlar:2 Ziyaretçi
Şuan Online!
Filmin Yayınlanma Tarihi: 2019 
WWW
Rapor Et!
Şuan Online!
BroserBros Kurucu Admin
*******
Admin



 Steve McQueen'i Bulmak



Youngstown, Ohio’dan bir hırsız çetesine odaklanıyor. Birbirlerine oldukça bağlı olan çete üyeleri, 1972 yılında Başkan Richard Nixon’ın gizli fonundan 30 milyon dolar çalmaya karar verir. Planları çok geçmeden ters gider ve çetenin yakalanması için FBI tarihindeki en büyük insan avı başlatılır.

Steve McQueen'i Bulmak (2019) (Finding Steve McQueen) | tt6032328 Filmi Imdb'den 5,000 kişi tarafından oylandı ve 6,2 puan aldı. Bu film için editör puanı %65 olarak belirlendi. İyi Seyirler!

Teknik Detaylar

Kod :
General
Unique ID                                : 332404155785522362015044183443769468787 (0xFA12B633B7106CF062007F99B5F12773)
Complete name                            : /home/BroserBros/Desktop/2/Steve.McQueeni.Bulmak.2019.BRRip.XViD.TR.ENG.Filmbol.avi
Format                                   : Matroska
Format version                           : Version 4
File size                                : 781 MiB
Duration                                 : 1 h 31 min
Overall bit rate                         : 1 193 kb/s
Movie name                               : Steve McQuenn'i Bulmak - Finding Steve McQuenn - 2019 | Filmbol.org
Encoded date                             : UTC 2021-05-22 14:39:56
Writing application                      : mkvmerge v53.0.0 ('Fool's Gold') 64-bit
Writing library                          : libebml v1.4.1 + libmatroska v1.6.2
FileExtension_Invalid                    : mkv mk3d mka mks

Video
ID                                       : 1
Format                                   : MPEG-4 Visual
Format profile                           : Advanced [email protected]
Format settings                          : BVOP2
Format settings, BVOP                    : 2
Format settings, QPel                    : No
Format settings, GMC                     : No warppoints
Format settings, Matrix                  : Default (H.263)
Codec ID                                 : V_MS/VFW/FOURCC / DIVX
Codec ID/Info                            : Project Mayo
Codec ID/Hint                            : DivX 4
Duration                                 : 1 h 31 min
Bit rate                                 : 999 kb/s
Width                                    : 704 pixels
Height                                   : 374 pixels
Display aspect ratio                     : 1.882
Frame rate mode                          : Constant
Frame rate                               : 23.976 (24000/1001) FPS
Color space                              : YUV
Chroma subsampling                       : 4:2:0
Bit depth                                : 8 bits
Scan type                                : Progressive
Compression mode                         : Lossy
Bits/(Pixel*Frame)                       : 0.158
Stream size                              : 655 MiB (84%)
Title                                    : Steve McQuenn'i Bulmak - Finding Steve McQuenn - 2019 | Filmbol.org
Writing library                          : XviD 67
Default                                  : Yes
Forced                                   : No

Audio
ID                                       : 2
Format                                   : MPEG Audio
Format version                           : Version 1
Format profile                           : Layer 3
Codec ID                                 : A_MPEG/L3
Codec ID/Hint                            : MP3
Duration                                 : 1 h 31 min
Bit rate mode                            : Constant
Bit rate                                 : 192 kb/s
Channel(s)                               : 2 channels
Sampling rate                            : 48.0 kHz
Frame rate                               : 41.667 FPS (1152 SPF)
Compression mode                         : Lossy
Stream size                              : 126 MiB (16%)
Title                                    : Steve McQuenn'i Bulmak - Finding Steve McQuenn - 2019 | Filmbol.org
Writing library                          : LAME3.100ªªªªªªªªª`
Default                                  : Yes
Forced                                   : No

Film Detayları


 Steve McQueen'i Bulmak

 Steve McQueen'i Bulmak

 Steve McQueen'i Bulmak


Film Fragmanı


Film İndir


Rar Şifresi: filmbol.org



Uptobox ile indir

1Fichier ile indir

1Fichier'den İndiremiyor musun? Tıklayın!












Şuan Online!
Rapor Et!
Şuan Online!
BroserBros Kurucu Admin
*******
Admin
24.05.2021 Yönetici Notu:

Kırık linkler kontrol edildi, kaldırıldı ve yenilendi. Tüm linkler tamamen çalışır durumda.
Şuan Offine!
Rapor Et!
Şuan Offine!
Furkan61 Cezalı Üye
  • Konular0
  • Mesajlar288
teşekkürler


Hızlı Menü: