⤤ Premium'a Yükselt
Filmbol Forum Film İndir 720P v Kasırgada Vurgun (The Hurricane Heist) - 2018 - TR+ORG - 720P | tt5360952

Filmbol TV kullanıma açıldı. Bu adresten giriş yapabilirsin: Giriş





Kasırgada Vurgun (The Hurricane Heist) - 2018 - TR+ORG - 720P | tt5360952
BroserBros
Kasırgada Vurgun (The Hurricane Heist) - 2018 - TR+ORG - 720P | tt5360952
2
575
  • Derecelendirme: 0/5 - 0 oy
  • 1
  • 2
  • 3
  • 4
  • 5
Konuyu Okuyanlar:2 Ziyaretçi
Şuan Online!
Filmin Yayınlanma Tarihi: 2018 
WWW
Rapor Et!
Şuan Online!
BroserBros Kurucu Admin
*******
Admin



 Kasırgada Vurgun



Bir kasırga tehdidi altında, fırsatçı suçlular bir ‘ABD Mint’ tesisine sızarak 600 milyon dolar çalar. Kasırga, 5. kategori bir fırtınaya dönüşünce çok iyi hazırladıkları planları ters gider ve yalnızca bir Maliye Bakanlığı temsilcisinin (Maggie Grace) bildiği kasa dairesi şifresine ihtiyaç duyarlar. Fakat temsilci, kendisine beklenmedik bir müttefik bulmuştur: Kasırgalardan korkan fakat hırsızların kaçırdığı kardeşini kurtarmaya kararlı bir meteoroloji uzmanı (Toby Kebbell). Meteoroloji uzmanı Will, bu adrenalin dolu, dur durak bilmeyen aksiyon ve gerilim yolculuğunda galip gelmek için fırtına bilgisini bir silah olarak kullanır.

Kasırgada Vurgun (2018) (The Hurricane Heist) | tt5360952 Filmi Imdb'den 20,000 kişi tarafından oylandı ve 5,1 puan aldı. Bu film için editör puanı %61 olarak belirlendi. İyi Seyirler!

Teknik Detaylar

Kod :
General
Unique ID                                : 236196353779693916093868581080217432432 (0xB1B1C3573DA6D8D70795582D69D03170)
Complete name                            : /home/BroserBros/Desktop/8/Kasırgada.Vurgun.2018.720p.BluRay.x264.TR.ENG.Filmbol.mkv
Format                                   : Matroska
Format version                           : Version 4
File size                                : 985 MiB
Duration                                 : 1 h 43 min
Overall bit rate                         : 1 336 kb/s
Movie name                               : Kasırgada Vurgun - The Hurricane Heist - 2018 | Filmbol.org
Encoded date                             : UTC 2021-06-03 15:01:56
Writing application                      : mkvmerge v53.0.0 ('Fool's Gold') 64-bit
Writing library                          : libebml v1.4.1 + libmatroska v1.6.2

Video
ID                                       : 1
Format                                   : AVC
Format/Info                              : Advanced Video Codec
Format profile                           : [email protected]
Format settings                          : CABAC / 4 Ref Frames
Format settings, CABAC                   : Yes
Format settings, Reference frames        : 4 frames
Codec ID                                 : V_MPEG4/ISO/AVC
Duration                                 : 1 h 43 min
Bit rate                                 : 1 050 kb/s
Width                                    : 1 280 pixels
Height                                   : 534 pixels
Display aspect ratio                     : 2.40:1
Original display aspect ratio            : 2.40:1
Frame rate mode                          : Constant
Frame rate                               : 23.976 (24000/1001) FPS
Color space                              : YUV
Chroma subsampling                       : 4:2:0
Bit depth                                : 8 bits
Scan type                                : Progressive
Bits/(Pixel*Frame)                       : 0.064
Stream size                              : 774 MiB (79%)
Title                                    : 720P - Filmbol.org
Writing library                          : x264 core 155
Encoding settings                        : cabac=1 / ref=4 / deblock=1:-1:-1 / analyse=0x3:0x133 / me=umh / subme=9 / psy=1 / psy_rd=1.00:0.15 / mixed_ref=1 / me_range=24 / chroma_me=1 / trellis=2 / 8x8dct=1 / cqm=0 / deadzone=21,11 / fast_pskip=0 / chroma_qp_offset=-3 / threads=17 / lookahead_threads=1 / sliced_threads=0 / nr=0 / decimate=1 / interlaced=0 / bluray_compat=0 / constrained_intra=0 / bframes=3 / b_pyramid=2 / b_adapt=2 / b_bias=0 / direct=3 / weightb=1 / open_gop=0 / weightp=2 / keyint=250 / keyint_min=23 / scenecut=40 / intra_refresh=0 / rc_lookahead=60 / rc=2pass / mbtree=1 / bitrate=1050 / ratetol=1.0 / qcomp=0.60 / qpmin=0 / qpmax=69 / qpstep=4 / cplxblur=20.0 / qblur=0.5 / vbv_maxrate=31250 / vbv_bufsize=31250 / nal_hrd=none / filler=0 / ip_ratio=1.40 / aq=1:1.00
Default                                  : Yes
Forced                                   : No

Audio #1
ID                                       : 2
Format                                   : MPEG Audio
Format version                           : Version 1
Format profile                           : Layer 3
Format settings                          : Joint stereo / MS Stereo
Codec ID                                 : A_MPEG/L3
Codec ID/Hint                            : MP3
Duration                                 : 1 h 39 min
Bit rate mode                            : Constant
Bit rate                                 : 128 kb/s
Channel(s)                               : 2 channels
Sampling rate                            : 48.0 kHz
Frame rate                               : 41.667 FPS (1152 SPF)
Compression mode                         : Lossy
Delay relative to video                  : -43 ms
Stream size                              : 91.1 MiB (9%)
Title                                    : Türkçe - Filmbol.org
Writing library                          : LAME3.98.4
Language                                 : Turkish
Default                                  : Yes
Forced                                   : No

Audio #2
ID                                       : 3
Format                                   : AAC LC
Format/Info                              : Advanced Audio Codec Low Complexity
Codec ID                                 : A_AAC-2
Duration                                 : 1 h 43 min
Bit rate                                 : 159 kb/s
Channel(s)                               : 2 channels
Channel layout                           : L R
Sampling rate                            : 48.0 kHz
Frame rate                               : 46.875 FPS (1024 SPF)
Compression mode                         : Lossy
Delay relative to video                  : -43 ms
Stream size                              : 118 MiB (12%)
Title                                    : Orijinal Dil - Filmbol.org
Language                                 : English
Default                                  : No
Forced                                   : No

Text
ID                                       : 4
Format                                   : UTF-8
Codec ID                                 : S_TEXT/UTF8
Codec ID/Info                            : UTF-8 Plain Text
Duration                                 : 1 h 33 min
Bit rate                                 : 56 b/s
Count of elements                        : 1092
Stream size                              : 38.4 KiB (0%)
Title                                    : Türkçe - Filmbol.org
Language                                 : Turkish
Default                                  : No
Forced                                   : No

Film Detayları


 Kasırgada Vurgun

 Kasırgada Vurgun

 Kasırgada Vurgun


Film Fragmanı


Film İndir


Rar Şifresi: filmbol.org


Uptobox ile indir

1Fichier ile indir

1Fichier'den İndiremiyor musun? Tıklayın!












Şuan Offine!
Rapor Et!
Şuan Offine!
aogcurayiz Üye
*
Üye
  • Konular0
  • Mesajlar5
  • Rep puanı 0
Elinize sağlık
Şuan Online!
Rapor Et!
Şuan Online!
BroserBros Kurucu Admin
*******
Admin
04.06.2021 Yönetici Notu:

Kırık linkler kontrol edildi, kaldırıldı ve yenilendi. Tüm linkler tamamen çalışır durumda.


Hızlı Menü: