Filmbol Forum Film İndir BRRip XviD v Demir Adam 3 (Iron Man Three) - 2013 - TR - BRRip XviD | tt1300854
Mega linklerinin şikayet edilmemesi için global erişime kapatıp sadece yorum yapanlara açıyoruz. Bu linkleri gizleme işlemini mecburen yapıyoruz ve yorum yapmanızın siteye değil size faydası vardır. Teşekürler yazmayı çok görüp, Random/Spam mesajlar atarak Mega linklerini açmaya çalışan kullanıcılara önce süresiz ban, devam ederse IP ban atacağız.
Filmbol'da moderatör olmak ister misiniz? Bizimle iletişime geçmek için tıklayın!
Demir Adam 3 (Iron Man Three) - 2013 - TR - BRRip XviD | tt1300854
BroserBros
Demir Adam 3 (Iron Man Three) - 2013 - TR - BRRip XviD | tt1300854
7
2427
  • Derecelendirme: 4/5 - 1 oy
  • 1
  • 2
  • 3
  • 4
  • 5
Konuyu Okuyanlar:1 Ziyaretçi
Şuan Online!
Filmin Yayınlanma Tarihi: 2013 
WWW
Şuan Online!
BroserBros Kurucu Admin
*******
Admin



 Demir Adam 3



Tony Stark‘ın dünyası Mandarin adlı bir terorist tarafından parçalandı. Tony Stark ise hayatını yeniden kurup cezalandırmaya başlayacaktır.

Demir Adam 3 (2013) (Iron Man Three) | tt1300854 Filmi Imdb'den 760,000 kişi tarafından oylandı ve 7,1 puan aldı. Bu film için editör puanı %88 olarak belirlendi. İyi Seyirler!

Teknik Detaylar

Kod :
General
Complete name                            : /home/BroserBros/Desktop/7/Demir.Adam.3.2013.BRRip.XviD.TR.Filmbol.avi
Format                                   : AVI
Format/Info                              : Audio Video Interleave
File size                                : 827 MiB
Duration                                 : 2 h 10 min
Overall bit rate                         : 886 kb/s

Video
ID                                       : 0
Format                                   : MPEG-4 Visual
Format profile                           : Advanced [email protected]
Format settings                          : BVOP2
Format settings, BVOP                    : 2
Format settings, QPel                    : No
Format settings, GMC                     : No warppoints
Format settings, Matrix                  : Default (H.263)
Codec ID                                 : XVID
Codec ID/Hint                            : XviD
Duration                                 : 2 h 10 min
Bit rate                                 : 746 kb/s
Width                                    : 640 pixels
Height                                   : 272 pixels
Display aspect ratio                     : 2.35:1
Frame rate                               : 23.976 (24000/1001) FPS
Color space                              : YUV
Chroma subsampling                       : 4:2:0
Bit depth                                : 8 bits
Scan type                                : Progressive
Compression mode                         : Lossy
Bits/(Pixel*Frame)                       : 0.179
Stream size                              : 696 MiB (84%)
Writing library                          : XviD 1.2.1 (UTC 2008-12-04)

Audio
ID                                       : 1
Format                                   : MPEG Audio
Format version                           : Version 1
Format profile                           : Layer 3
Codec ID                                 : 55
Codec ID/Hint                            : MP3
Duration                                 : 1 h 21 min
Source duration                          : 2 h 10 min
Bit rate mode                            : Constant
Bit rate                                 : 128 kb/s
Channel(s)                               : 2 channels
Sampling rate                            : 44.1 kHz
Compression mode                         : Lossy
Stream size                              : 120 MiB (14%)
Alignment                                : Aligned on interleaves
Interleave, duration                     : 26  ms (0.63 video frame)

Film Detayları


 Demir Adam 3

 Demir Adam 3

 Demir Adam 3


Film Fragmanı


Film Detayları


Uptobox ile indir

1Fichier ile indir

1Fichier'den İndiremiyor musun? Tıklayın!


Mega linki şuan da gizli. Kullanıma açmak için konuya yorum yapın ve ardından sayfayı yenileyin.

Mega


Bunun için üzgünüz ancak, bu linke sadece premium üyeler erişebilir.

Filmbol Cloud





Şuan Offine!
Şuan Offine!
Ap0calypse Süper Üye
***
Super Üye

  • Konular0
  • Mesajlar39
  • Rep puanı 0
eline sağlık
Şuan Online!
Şuan Online!
Furkan61 Süper Üye
***
Super Üye

  • Konular0
  • Mesajlar227
  • Rep puanı 4
elinize sağlık
Şuan Online!
Şuan Online!
Furkan61 Süper Üye
***
Super Üye

  • Konular0
  • Mesajlar227
  • Rep puanı 4
Teşekkürler çok güzel filmdi ayrıca avı uzantılı ?
Şuan Online!
Şuan Online!
BroserBros Kurucu Admin
*******
Admin

16.03.2021 Yönetici Notu:

Kırık linkler kontrol edildi, kaldırıldı ve yenilendi. Tüm linkler tamamen çalışır durumda. @Furkan61 @sectechno
Şuan Offine!
Şuan Offine!
sectechno Premium Üye
****

  • Konular11
  • Mesajlar108
  • Rep puanı 20
Teşekkürler arkadaşım.İyi çalışmalar. Smile
Şuan Online!
Şuan Online!
TheSteeL Süper Moderatör
*****
Süper Moderatör

İyi Seyirler.
Şuan Offine!
Şuan Offine!
tony Yeni Üye
*
Üye

  • Konular0
  • Mesajlar4
  • Rep puanı 0
Teşekürler


Hızlı Menü: