⤤ Premium'a Yükselt
Filmbol Forum Film İndir BRRip XviD v Bleach (Bleach: Burîchu) - 2018 - TR - BRRip XviD | tt5979872

Filmbol TV kullanıma açıldı. Bu adresten giriş yapabilirsin: Giriş





Bleach (Bleach: Burîchu) - 2018 - TR - BRRip XviD | tt5979872
BroserBros
Bleach (Bleach: Burîchu) - 2018 - TR - BRRip XviD | tt5979872
1
962
  • Derecelendirme: 0/5 - 0 oy
  • 1
  • 2
  • 3
  • 4
  • 5
Konuyu Okuyanlar:2 Ziyaretçi
Şuan Online!
Filmin Yayınlanma Tarihi: 2018 
WWW
Rapor Et!
Şuan Online!
BroserBros Kurucu Admin
*******
Admin



 Bleach



Bleach, 2001 yılından beri yayınlanan Japonya yapımı bir manga çizgi roman serisidir. 2004 yılından itibaren animeye uyarlanmıştır.
Bleach anime serisi, bir lise öğrencisi olan Ichigo Kurosaki’nin maceralarını anlatır. Ichigo’nun ruhları görebilme gibi özel bir yeteneği vardır. Bir gün Ichigo, yatak odasında tuhaf bir yabancının olduğunu farkeder. Bu yabancı bir şinigami (ruh biçici, ölüm tanrısı) olan Rukia Kuchiki’dir. Rukia, Ichigo’nun kendini görebilmesine çok şaşırır. Bu esnada ortaya bir hollow (şeytani ruh) çıkar. Rukia, Ichigo’yu korumaya çalışırken ciddi bir şekilde yaralanır. Rukia, hollow’la dövüşebilmesi için güçlerinin yarısını Ichigo’ya vermeye karar verir fakat Ichigo istemsizce Rukia’nın tüm güçlerine sahip olur ve şeytani ruhu kolayca yokeder. Ertesi gün Rukia, güçlerini geri kazanabilmek ve şinigamilik görevini devam ettirebilmek için Ichigo’nun sınıfına transfer olur. Ichigo ve Rukia’nın şinigamilik maceraları başlar.

Bleach (2018) (Bleach: Burîchu) | tt5979872 Filmi Imdb'den 11,000 kişi tarafından oylandı ve 6,4 puan aldı. Bu film için editör puanı %67 olarak belirlendi. İyi Seyirler!

Teknik Detaylar

Kod :
General
Unique ID                                : 101067310341278870509338716492059545596 (0x4C08DB1EC902012E64393846A05A8FFC)
Complete name                            : /home/BroserBros/Desktop/5/Bleach.2018.NF.XviD.TR.Filmbol.avi
Format                                   : Matroska
Format version                           : Version 4
File size                                : 1.09 GiB
Duration                                 : 1 h 48 min
Overall bit rate                         : 1 433 kb/s
Movie name                               : Bleach - 2018 | Filmbol.org
Encoded date                             : UTC 2021-06-04 15:37:17
Writing application                      : mkvmerge v53.0.0 ('Fool's Gold') 64-bit
Writing library                          : libebml v1.4.1 + libmatroska v1.6.2
FileExtension_Invalid                    : mkv mk3d mka mks

Video
ID                                       : 1
Format                                   : MPEG-4 Visual
Format profile                           : Advanced [email protected]
Format settings                          : BVOP2
Format settings, BVOP                    : 2
Format settings, QPel                    : No
Format settings, GMC                     : No warppoints
Format settings, Matrix                  : Default (MPEG)
Muxing mode                              : Packed bitstream
Codec ID                                 : V_MS/VFW/FOURCC / XVID
Codec ID/Hint                            : XviD
Duration                                 : 1 h 48 min
Bit rate                                 : 1 303 kb/s
Width                                    : 720 pixels
Height                                   : 404 pixels
Display aspect ratio                     : 16:9
Frame rate mode                          : Constant
Frame rate                               : 23.976 (24000/1001) FPS
Original frame rate                      : 23.976 (23976/1000) FPS
Color space                              : YUV
Chroma subsampling                       : 4:2:0
Bit depth                                : 8 bits
Scan type                                : Progressive
Compression mode                         : Lossy
Bits/(Pixel*Frame)                       : 0.187
Stream size                              : 1 013 MiB (91%)
Title                                    : Bleach - 2018 | Filmbol.org
Writing library                          : XviD 64
Default                                  : Yes
Forced                                   : No

Audio
ID                                       : 2
Format                                   : MPEG Audio
Format version                           : Version 1
Format profile                           : Layer 3
Format settings                          : Joint stereo / MS Stereo
Codec ID                                 : A_MPEG/L3
Codec ID/Hint                            : MP3
Duration                                 : 1 h 48 min
Bit rate mode                            : Constant
Bit rate                                 : 128 kb/s
Channel(s)                               : 2 channels
Sampling rate                            : 48.0 kHz
Frame rate                               : 41.667 FPS (1152 SPF)
Compression mode                         : Lossy
Stream size                              : 99.5 MiB (9%)
Title                                    : Bleach - 2018 | Filmbol.org
Writing library                          : LAME3.99.5
Language                                 : Turkish
Default                                  : Yes
Forced                                   : No

Text
ID                                       : 3
Format                                   : UTF-8
Codec ID                                 : S_TEXT/UTF8
Codec ID/Info                            : UTF-8 Plain Text
Duration                                 : 1 h 45 min
Bit rate                                 : 0 b/s
Count of elements                        : 17
Stream size                              : 431 Bytes (0%)
Title                                    : Bleach - 2018 | Filmbol.org
Language                                 : Turkish
Default                                  : Yes
Forced                                   : No

Film Detayları


 Bleach

 Bleach

 Bleach


Film Fragmanı


Film İndir


Rar Şifresi: filmbol.org



Uptobox ile indir

1Fichier ile indir

1Fichier'den İndiremiyor musun? Tıklayın!












Şuan Online!
Rapor Et!
Şuan Online!
BroserBros Kurucu Admin
*******
Admin
05.06.2021 Yönetici Notu:

Kırık linkler kontrol edildi, kaldırıldı ve yenilendi. Tüm linkler tamamen çalışır durumda.


Hızlı Menü: