⤤ Premium'a Yükselt
Filmbol Forum Film İndir 1080P v Sesinde Aşk Var - 2019 - TR+ORG - 1080P | tt10757976

Filmbol TV kullanıma açıldı. Bu adresten giriş yapabilirsin: Giriş





Sesinde Aşk Var - 2019 - TR+ORG - 1080P | tt10757976
BroserBros
Sesinde Aşk Var - 2019 - TR+ORG - 1080P | tt10757976
4
608
  • Derecelendirme: 5/5 - 1 oy
  • 1
  • 2
  • 3
  • 4
  • 5
Konuyu Okuyanlar:3 Ziyaretçi
Şuan Online!
Filmin Yayınlanma Tarihi: 2018 
WWW
Rapor Et!
Şuan Online!
BroserBros Kurucu Admin
*******
Admin



 Sesinde Aşk Var



Sesinde Aşk Var, hayatına yön vermesi gereken bir dönemde aşık olması ile tüm dengesi bozulan genç bir kızın hikayesini konu ediyor. 17 yaşındaki Deniz, anne ve babasını küçük yaşta kaybetmesinin ardından dedesi ile birlikte büyeyen genç bir kızdır. Hayattaki en büyük zevki şarkı söylemek olan Deniz, dedesi Şükrü’nün geçmişinde yaşadığı travma sonrası kendisine yağtığı baskı ile bu yeteneğinden uzaklaşarak kendisini dersine verir. Ancak onun yaşama okula yeni gelen Rüzgar adındaki bir öğrenci ile tanışması ile bambaşka bir hal alır. Deniz, elinden gitarı düşmeyen bir genç olan Rüzgar sayesinde hayatında gerçekten yapmak istediği şeyi keşfetme yolculuğuna çıkar. Ancak bu süreç, dedesinin rahatsızlığının tetiklenmesine neden olur. Dedesi ve müzik tutkusu arasından sıkışıp kalan Deniz, hayatının en zor kararını vermek üzereyken geçmişi ile ilgili büyük bir sır öğrenir. Bu sır her şeyin bir anda tersine dönmesine neden olur.

Sesinde Aşk Var (2019) | tt10757976 Filmi Imdb'den 1,000 kişi tarafından oylandı ve 4,5 puan aldı. Bu film için editör puanı %59 olarak belirlendi. İyi Seyirler!

Teknik Detaylar

Kod :
General
Unique ID                                : 191607037166883945158429248015872843546 (0x90262C4C9435CD59366924B9F1FC5F1A)
Complete name                            : C:\Users\Administrator\Desktop\6\Sesinde.Aşk.Var.2019.1080p.BluRay.x264.Yerli.Filmbol.mkv
Format                                   : Matroska
Format version                           : Version 4
File size                                : 2.18 GiB
Duration                                 : 1 h 43 min
Overall bit rate                         : 3 015 kb/s
Movie name                               : Sesinde Aşk Var - Yerli - 2019 | [FilmboL]
Encoded date                             : UTC 2021-09-08 14:26:11
Writing application                      : mkvmerge v61.0.0 ('So') 64-bit
Writing library                          : libebml v1.4.2 + libmatroska v1.6.4

Video
ID                                       : 1
Format                                   : AVC
Format/Info                              : Advanced Video Codec
Format profile                           : [email protected]
Format settings                          : CABAC / 3 Ref Frames
Format settings, CABAC                   : Yes
Format settings, Reference frames        : 3 frames
Codec ID                                 : V_MPEG4/ISO/AVC
Duration                                 : 1 h 43 min
Bit rate                                 : 2 886 kb/s
Width                                    : 1 920 pixels
Height                                   : 1 080 pixels
Display aspect ratio                     : 16:9
Frame rate mode                          : Constant
Frame rate                               : 25.000 FPS
Color space                              : YUV
Chroma subsampling                       : 4:2:0
Bit depth                                : 8 bits
Scan type                                : Progressive
Bits/(Pixel*Frame)                       : 0.056
Stream size                              : 2.09 GiB (96%)
Title                                    : Sesinde Aşk Var - Yerli - 2019 | [FilmboL]
Language                                 : Turkish
Default                                  : Yes
Forced                                   : No

Audio
ID                                       : 2
Format                                   : E-AC-3
Format/Info                              : Enhanced AC-3
Commercial name                          : Dolby Digital Plus
Codec ID                                 : A_EAC3
Duration                                 : 1 h 43 min
Bit rate mode                            : Constant
Bit rate                                 : 128 kb/s
Channel(s)                               : 2 channels
Channel layout                           : L R
Sampling rate                            : 48.0 kHz
Frame rate                               : 31.250 FPS (1536 SPF)
Compression mode                         : Lossy
Stream size                              : 94.8 MiB (4%)
Title                                    : Sesinde Aşk Var - Yerli - 2019 | [FilmboL]
Service kind                             : Complete Main
Default                                  : Yes
Forced                                   : No

Text
ID                                       : 3
Format                                   : UTF-8
Codec ID                                 : S_TEXT/UTF8
Codec ID/Info                            : UTF-8 Plain Text
Duration                                 : 41 min 10 s
Bit rate                                 : 1 b/s
Count of elements                        : 4
Stream size                              : 456 Bytes (0%)
Title                                    : Sesinde Aşk Var - Yerli - 2019 | [FilmboL]
Default                                  : No
Forced                                   : Yes

Film Detayları


 Sesinde Aşk Var

 Sesinde Aşk Var

 Sesinde Aşk Var


Film Fragmanı


Film İndir


Rar Şifresi: filmbol.org


Uptobox ile indir

1Fichier ile indir

1Fichier'den İndiremiyor musun? Tıklayın!












Şuan Offine!
Rapor Et!
Şuan Offine!
mura2 Uzman Üye
**
Uzman Üye
  • Konular0
  • Mesajlar6
  • Rep puanı 0
sagolunn
Şuan Online!
Rapor Et!
Şuan Online!
BroserBros Kurucu Admin
*******
Admin
09.09.2021 Yönetici Notu:

Kırık linkler kontrol edildi, kaldırıldı ve yenilendi. Tüm linkler tamamen çalışır durumda.
Şuan Offine!
Rapor Et!
Şuan Offine!
onur23 Üye
*
Üye
  • Konular0
  • Mesajlar42
  • Rep puanı 0
Teşekkürler.
Şuan Offine!
Rapor Et!
Şuan Offine!
[email protected] Üye
*
Üye
  • Konular0
  • Mesajlar2
  • Rep puanı 0
Teşekkürler.


Hızlı Menü: