⤤ Premium'a Yükselt
Filmbol Forum Film İndir 720P v Şeytan Göz (Demon Eye) - 2019 - TR+ORG - 720P | tt8028600

Filmbol TV kullanıma açıldı. Bu adresten giriş yapabilirsin: Giriş





Şeytan Göz (Demon Eye) - 2019 - TR+ORG - 720P | tt8028600
BroserBros
Şeytan Göz (Demon Eye) - 2019 - TR+ORG - 720P | tt8028600
7
832
  • Derecelendirme: 0/5 - 0 oy
  • 1
  • 2
  • 3
  • 4
  • 5
Konuyu Okuyanlar:2 Ziyaretçi
Şuan Online!
Filmin Yayınlanma Tarihi: 2019 
WWW
Rapor Et!
Şuan Online!
BroserBros Kurucu Admin
*******
Admin



 Şeytan Göz



Şeytan Göz, babasının gizemli ölümünü araştıran genç bir kadının başına gelenleri konu ediyor. Genç bir kadın, babasını ölümünün ardından büyük bir yıkıma uğrar. Babasının gizemli ölümünü araştırmaya karar veren kadın, babasının köyde bulunan evine doğru yola koyulur. Evde bir şeyler bulma ümidiyle arama yapmaya başlayan kadın, büyücülükle bağlantılı lanetli bir muska keşfeder. Muskanın karanlık güçleri olduğunu anlayan genç kadın, en büyük dileğinin yerine getirilmesi karşılığında ona musallat olacak olan iki ölümcül iblisin kilidini açar.

Şeytan Göz (2019) (Demon Eye) | tt8028600 Filmi Imdb'den 500 kişi tarafından oylandı ve 3,2 puan aldı. Bu film için editör puanı %44 olarak belirlendi. İyi Seyirler!

Teknik Detaylar

Kod :
General
Unique ID                                : 31157666622639363867962406042919932126 (0x1770BF918B4DDA9ED91875D2117A90DE)
Complete name                            : /home/BroserBros/Desktop/3/Şeytan.Göz.2019.720p.BluRay.x264.TR.ENG.Filmbol.mkv
Format                                   : Matroska
Format version                           : Version 4
File size                                : 873 MiB
Duration                                 : 1 h 26 min
Overall bit rate                         : 1 409 kb/s
Movie name                               : Şeytan Göz -  Demon Eye - 2019 | Filmbol.org
Encoded date                             : UTC 2021-06-04 14:48:19
Writing application                      : mkvmerge v53.0.0 ('Fool's Gold') 64-bit
Writing library                          : libebml v1.4.1 + libmatroska v1.6.2

Video
ID                                       : 1
Format                                   : AVC
Format/Info                              : Advanced Video Codec
Format profile                           : [email protected]
Format settings                          : CABAC / 4 Ref Frames
Format settings, CABAC                   : Yes
Format settings, Reference frames        : 4 frames
Codec ID                                 : V_MPEG4/ISO/AVC
Duration                                 : 1 h 26 min
Bit rate                                 : 1 150 kb/s
Width                                    : 1 280 pixels
Height                                   : 534 pixels
Display aspect ratio                     : 2.40:1
Original display aspect ratio            : 2.40:1
Frame rate mode                          : Constant
Frame rate                               : 24.000 FPS
Color space                              : YUV
Chroma subsampling                       : 4:2:0
Bit depth                                : 8 bits
Scan type                                : Progressive
Bits/(Pixel*Frame)                       : 0.070
Stream size                              : 713 MiB (82%)
Title                                    : 720P - Filmbol.org
Writing library                          : x264 core 159
Encoding settings                        : cabac=1 / ref=4 / deblock=1:-1:-1 / analyse=0x3:0x133 / me=umh / subme=9 / psy=1 / psy_rd=1.00:0.15 / mixed_ref=1 / me_range=24 / chroma_me=1 / trellis=2 / 8x8dct=1 / cqm=0 / deadzone=21,11 / fast_pskip=0 / chroma_qp_offset=-3 / threads=12 / lookahead_threads=1 / sliced_threads=0 / nr=0 / decimate=1 / interlaced=0 / bluray_compat=0 / constrained_intra=0 / bframes=3 / b_pyramid=2 / b_adapt=2 / b_bias=0 / direct=3 / weightb=1 / open_gop=0 / weightp=2 / keyint=250 / keyint_min=23 / scenecut=40 / intra_refresh=0 / rc_lookahead=60 / rc=2pass / mbtree=1 / bitrate=1150 / ratetol=1.0 / qcomp=0.60 / qpmin=0 / qpmax=69 / qpstep=4 / cplxblur=20.0 / qblur=0.5 / vbv_maxrate=31250 / vbv_bufsize=31250 / nal_hrd=none / filler=0 / ip_ratio=1.40 / aq=1:1.00
Default                                  : Yes
Forced                                   : No

Audio #1
ID                                       : 2
Format                                   : AC-3
Format/Info                              : Audio Coding 3
Commercial name                          : Dolby Digital
Codec ID                                 : A_AC3
Duration                                 : 1 h 26 min
Bit rate mode                            : Constant
Bit rate                                 : 128 kb/s
Channel(s)                               : 2 channels
Channel layout                           : L R
Sampling rate                            : 44.1 kHz
Frame rate                               : 28.711 FPS (1536 SPF)
Compression mode                         : Lossy
Delay relative to video                  : 2 s 979 ms
Stream size                              : 79.3 MiB (9%)
Title                                    : Türkçe - Filmbol.org
Language                                 : Turkish
Service kind                             : Complete Main
Default                                  : Yes
Forced                                   : Yes

Audio #2
ID                                       : 3
Format                                   : AAC LC
Format/Info                              : Advanced Audio Codec Low Complexity
Codec ID                                 : A_AAC-2
Duration                                 : 1 h 26 min
Bit rate                                 : 128 kb/s
Channel(s)                               : 2 channels
Channel layout                           : L R
Sampling rate                            : 48.0 kHz
Frame rate                               : 46.875 FPS (1024 SPF)
Compression mode                         : Lossy
Delay relative to video                  : -21 ms
Stream size                              : 79.4 MiB (9%)
Title                                    : Orijinal Dil - Filmbol.org
Language                                 : English
Default                                  : No
Forced                                   : No

Film Detayları


 Şeytan Göz

 Şeytan Göz

 Şeytan Göz


Film Fragmanı


Film İndir


Rar Şifresi: filmbol.org


Uptobox ile indir

1Fichier ile indir

1Fichier'den İndiremiyor musun? Tıklayın!












Şuan Offine!
Rapor Et!
Şuan Offine!
peterfaker Uzman Üye
**
Uzman Üye
  • Konular0
  • Mesajlar9
  • Rep puanı 0
güzel film
Şuan Offine!
Rapor Et!
Şuan Offine!
gokenci43 Cezalı Üye
  • Konular0
  • Mesajlar16
güzelll
Şuan Offine!
Rapor Et!
Şuan Offine!
panganod Uzman Üye
**
Uzman Üye
  • Konular0
  • Mesajlar6
  • Rep puanı 0
iyi fazla
Şuan Offine!
Rapor Et!
Şuan Offine!
samedihsan01 Üye
*
Üye
  • Konular0
  • Mesajlar2
  • Rep puanı 0
asdesad
Şuan Online!
Rapor Et!
Şuan Online!
BroserBros Kurucu Admin
*******
Admin
05.06.2021 Yönetici Notu:

Kırık linkler kontrol edildi, kaldırıldı ve yenilendi. Tüm linkler tamamen çalışır durumda.
Şuan Offine!
Rapor Et!
Şuan Offine!
tamiasboi Üye
*
Üye
  • Konular0
  • Mesajlar71
  • Rep puanı 0
Teşekkürler
Şuan Offine!
Rapor Et!
Şuan Offine!
teedy52 Üye
*
Üye
  • Konular0
  • Mesajlar12
  • Rep puanı 0
Teşekkürler.


Hızlı Menü: