⤤ Premium'a Yükselt
Filmbol Forum Film İndir BRRip XviD v Yakalandın! (Tag) - 2018 - TR - BRRip XviD | tt2854926

Filmbol TV kullanıma açıldı. Bu adresten giriş yapabilirsin: Giriş





Yakalandın! (Tag) - 2018 - TR - BRRip XviD | tt2854926
BroserBros
Yakalandın! (Tag) - 2018 - TR - BRRip XviD | tt2854926
1
498
  • Derecelendirme: 0/5 - 0 oy
  • 1
  • 2
  • 3
  • 4
  • 5
Konuyu Okuyanlar:3 Ziyaretçi
Şuan Online!
Filmin Yayınlanma Tarihi: 2018 
WWW
Rapor Et!
Şuan Online!
BroserBros Kurucu Admin
*******
Admin



 Yakalandın!



Russell Adams’ın 2013 yılı imzalı The Wall Street Journal yazısına dayanan film, bir çocuk oyununu dozunu arttırarak senelerce oynamaya devam eden bir arkadaş grubunu temel alıyor. Beş yakın arkadaş çocukluklarından beri yılda bir kez “elim sende” oynar. Bu durum artık onlar için bir gelenek haline gelmiştir. Herkes bu yılki oyuna hazırlanmıştır. Fakat bu sene oyun zamanı gruptan birinin düğününe denk gelir. Grubun asla yenilmeyen oyuncusu bu koşullarda kolay bir hedef olarak görülür. Fakat o kendini her şeye karşı hazırlamıştır.

Yakalandın! (2018) (Tag) | tt2854926 Filmi Imdb'den 120,000 kişi tarafından oylandı ve 6,5 puan aldı. Bu film için editör puanı %71 olarak belirlendi. İyi Seyirler!

Teknik Detaylar

Kod :
General
Unique ID                                : 73241558000620030333249100651247202576 (0x3719CF9BE81AFB49D8B2F4AD36BC7110)
Complete name                            : /home/BroserBros/Desktop/6/Yakalandın.2018.BRRip.XviD.TR.Filmbol.avi
Format                                   : Matroska
Format version                           : Version 4
File size                                : 1.36 GiB
Duration                                 : 1 h 40 min
Overall bit rate                         : 1 935 kb/s
Movie name                               : Yakalandın - Tag - 2018 | Filmbol.org
Encoded date                             : UTC 2021-06-06 12:02:40
Writing application                      : mkvmerge v53.0.0 ('Fool's Gold') 64-bit
Writing library                          : libebml v1.4.1 + libmatroska v1.6.2
FileExtension_Invalid                    : mkv mk3d mka mks

Video
ID                                       : 1
Format                                   : MPEG-4 Visual
Format profile                           : Advanced [email protected]
Format settings                          : BVOP2 / QPel
Format settings, BVOP                    : 2
Format settings, QPel                    : Yes
Format settings, GMC                     : No warppoints
Format settings, Matrix                  : Default (H.263)
Codec ID                                 : V_MS/VFW/FOURCC / XVID
Codec ID/Hint                            : XviD
Duration                                 : 1 h 40 min
Bit rate                                 : 1 805 kb/s
Width                                    : 720 pixels
Height                                   : 300 pixels
Display aspect ratio                     : 2.40:1
Frame rate mode                          : Constant
Frame rate                               : 23.976 (23976/1000) FPS
Color space                              : YUV
Chroma subsampling                       : 4:2:0
Bit depth                                : 8 bits
Scan type                                : Progressive
Compression mode                         : Lossy
Bits/(Pixel*Frame)                       : 0.349
Stream size                              : 1.27 GiB (93%)
Title                                    : Yakalandın - Tag - 2018 | Filmbol.org
Writing library                          : XviD 67
Default                                  : Yes
Forced                                   : No

Audio
ID                                       : 2
Format                                   : MPEG Audio
Format version                           : Version 1
Format profile                           : Layer 3
Format settings                          : Joint stereo / MS Stereo
Codec ID                                 : A_MPEG/L3
Codec ID/Hint                            : MP3
Duration                                 : 1 h 40 min
Bit rate mode                            : Constant
Bit rate                                 : 128 kb/s
Channel(s)                               : 2 channels
Sampling rate                            : 48.0 kHz
Frame rate                               : 41.667 FPS (1152 SPF)
Compression mode                         : Lossy
Stream size                              : 92.0 MiB (7%)
Title                                    : Yakalandın - Tag - 2018 | Filmbol.org
Writing library                          : LAME3.99.5
Default                                  : Yes
Forced                                   : No

Film Detayları


 Yakalandın!

 Yakalandın!

 Yakalandın!


Film Fragmanı


Film İndir


Rar Şifresi: filmbol.org



Uptobox ile indir

1Fichier ile indir

1Fichier'den İndiremiyor musun? Tıklayın!












Şuan Online!
Rapor Et!
Şuan Online!
BroserBros Kurucu Admin
*******
Admin
07.06.2021 Yönetici Notu:

Kırık linkler kontrol edildi, kaldırıldı ve yenilendi. Tüm linkler tamamen çalışır durumda.


Hızlı Menü: