⤤ Premium'a Yükselt

Merhaba, Ziyaretçi. Mega linklerinin bir kısmı deaktif halde ve yenileme çalışmalarına başladık. Bu süre içinde ikinci duyuruya kadar mega linklerini raporlamayın!! x

Filmbol Forum Film İndir 720P v Han Solo: Bir Star Wars Hikâyesi (Solo: A Star Wars Story) - 2018 - TR+ORG - 720P | tt3778644

Filmbol TV kullanıma açıldı. Bu adresten giriş yapabilirsin: Giriş





Han Solo: Bir Star Wars Hikâyesi (Solo: A Star Wars Story) - 2018 - TR+ORG - 720P | tt3778644
BroserBros
Han Solo: Bir Star Wars Hikâyesi (Solo: A Star Wars Story) - 2018 - TR+ORG - 720P | tt3778644
11
2274
  • Derecelendirme: 0/5 - 0 oy
  • 1
  • 2
  • 3
  • 4
  • 5
Konuyu Okuyanlar:2 Ziyaretçi
Şuan Online!
Filmin Yayınlanma Tarihi: 2018 
WWW
Rapor Et!
Şuan Online!
BroserBros Kurucu Admin
*******
Admin



 Han Solo: Bir Star Wars Hikâyesi



Dünyanın en iyisi olmaya karar veren genç Han Solo, kaçakçılık için toplanan bir ekibin üyesi oluyor ve hayat boyu yanında olacak olan yardımcı pilotu Chewbacca ile güçlerini birleştiriyor. Yıllarca dostluğunu sürdüreceği Lando Calrissian ve Qi’ra da bu macerada Han Solo’ya eşlik ediyor…

Han Solo: Bir Star Wars Hikâyesi (2018) (Solo: A Star Wars Story) | tt3778644 Filmi Imdb'den 300,000 kişi tarafından oylandı ve 6,9 puan aldı. Bu film için editör puanı %75 olarak belirlendi. İyi Seyirler!

Teknik Detaylar

Kod :
General
Unique ID                                : 122217503195769966416693255908778512191 (0x5BF23C2347229E45CF8441BCA06F0F3F)
Complete name                            : /home/BroserBros/Desktop/8/Han.Solo.Bir.Star.Wars.Hikayesi.2018.720p.BluRay.x264.TR.ENG.Filmbol.mkv
Format                                   : Matroska
Format version                           : Version 4
File size                                : 1.49 GiB
Duration                                 : 2 h 14 min
Overall bit rate                         : 1 584 kb/s
Movie name                               : Han Solo: Bir Star Wars Hikayesi - Solo: A Star Wars Story - 2018 | Filmbol.org
Encoded date                             : UTC 2021-05-02 11:35:02
Writing application                      : mkvmerge v53.0.0 ('Fool's Gold') 64-bit
Writing library                          : libebml v1.4.1 + libmatroska v1.6.2

Video
ID                                       : 1
Format                                   : AVC
Format/Info                              : Advanced Video Codec
Format profile                           : [email protected]
Format settings                          : CABAC / 4 Ref Frames
Format settings, CABAC                   : Yes
Format settings, Reference frames        : 4 frames
Codec ID                                 : V_MPEG4/ISO/AVC
Duration                                 : 2 h 14 min
Bit rate                                 : 1 050 kb/s
Width                                    : 1 280 pixels
Height                                   : 528 pixels
Display aspect ratio                     : 2.40:1
Frame rate mode                          : Constant
Frame rate                               : 23.976 (24000/1001) FPS
Color space                              : YUV
Chroma subsampling                       : 4:2:0
Bit depth                                : 8 bits
Scan type                                : Progressive
Bits/(Pixel*Frame)                       : 0.065
Stream size                              : 1 012 MiB (66%)
Title                                    : 720P - Filmbol.org
Writing library                          : x264 core 155
Encoding settings                        : cabac=1 / ref=4 / deblock=1:-1:-1 / analyse=0x3:0x133 / me=umh / subme=9 / psy=1 / psy_rd=1.00:0.15 / mixed_ref=1 / me_range=24 / chroma_me=1 / trellis=2 / 8x8dct=1 / cqm=0 / deadzone=21,11 / fast_pskip=0 / chroma_qp_offset=-3 / threads=16 / lookahead_threads=1 / sliced_threads=0 / nr=0 / decimate=1 / interlaced=0 / bluray_compat=0 / constrained_intra=0 / bframes=3 / b_pyramid=2 / b_adapt=2 / b_bias=0 / direct=3 / weightb=1 / open_gop=0 / weightp=2 / keyint=250 / keyint_min=23 / scenecut=40 / intra_refresh=0 / rc_lookahead=60 / rc=2pass / mbtree=1 / bitrate=1050 / ratetol=1.0 / qcomp=0.60 / qpmin=0 / qpmax=69 / qpstep=4 / cplxblur=20.0 / qblur=0.5 / vbv_maxrate=31250 / vbv_bufsize=31250 / nal_hrd=none / filler=0 / ip_ratio=1.40 / aq=1:1.00
Default                                  : Yes
Forced                                   : No

Audio #1
ID                                       : 2
Format                                   : AC-3
Format/Info                              : Audio Coding 3
Commercial name                          : Dolby Digital
Codec ID                                 : A_AC3
Duration                                 : 2 h 14 min
Bit rate mode                            : Constant
Bit rate                                 : 384 kb/s
Channel(s)                               : 6 channels
Channel layout                           : L R C LFE Ls Rs
Sampling rate                            : 48.0 kHz
Frame rate                               : 31.250 FPS (1536 SPF)
Compression mode                         : Lossy
Delay relative to video                  : -43 ms
Stream size                              : 371 MiB (24%)
Title                                    : Türkçe - Filmbol.org
Language                                 : Turkish
Service kind                             : Complete Main
Default                                  : Yes
Forced                                   : No

Audio #2
ID                                       : 3
Format                                   : AAC LC
Format/Info                              : Advanced Audio Codec Low Complexity
Codec ID                                 : A_AAC-2
Duration                                 : 2 h 14 min
Bit rate                                 : 149 kb/s
Channel(s)                               : 2 channels
Channel layout                           : L R
Sampling rate                            : 48.0 kHz
Frame rate                               : 46.875 FPS (1024 SPF)
Compression mode                         : Lossy
Delay relative to video                  : -43 ms
Stream size                              : 144 MiB (9%)
Title                                    : Orjinal Dil - Filmbol.org
Language                                 : English
Default                                  : No
Forced                                   : No

Text #1
ID                                       : 4
Format                                   : UTF-8
Codec ID                                 : S_TEXT/UTF8
Codec ID/Info                            : UTF-8 Plain Text
Duration                                 : 1 h 17 min
Bit rate                                 : 0 b/s
Count of elements                        : 16
Stream size                              : 409 Bytes (0%)
Title                                    : Türkçe Forced - Filmbol.org
Language                                 : Turkish
Default                                  : Yes
Forced                                   : Yes

Text #2
ID                                       : 5
Format                                   : UTF-8
Codec ID                                 : S_TEXT/UTF8
Codec ID/Info                            : UTF-8 Plain Text
Duration                                 : 2 h 6 min
Bit rate                                 : 56 b/s
Count of elements                        : 1805
Stream size                              : 52.1 KiB (0%)
Title                                    : Türkçe - Filmbol.org
Language                                 : Turkish
Default                                  : No
Forced                                   : No

Film Detayları


 Han Solo: Bir Star Wars Hikâyesi

 Han Solo: Bir Star Wars Hikâyesi

 Han Solo: Bir Star Wars Hikâyesi


Film Fragmanı


Film İndir


Rar Şifresi: filmbol.org


Uptobox ile indir

1Fichier ile indir

1Fichier'den İndiremiyor musun? Tıklayın!












Şuan Offine!
Rapor Et!
Şuan Offine!
agresif Süper Üye
***
Super Üye
  • Konular0
  • Mesajlar37
  • Rep puanı 0
teşekkürler...
Şuan Offine!
Rapor Et!
Şuan Offine!
aziz192555 Üye
*
Üye
  • Konular0
  • Mesajlar2
  • Rep puanı 0
güzel bir film
7
Şuan Offine!
Rapor Et!
Şuan Offine!
qaaNz Uzman Üye
**
Uzman Üye
  • Konular0
  • Mesajlar9
  • Rep puanı 0
teşekkürler
Şuan Offine!
Rapor Et!
Şuan Offine!
Said Uzman Üye
**
Uzman Üye
  • Konular0
  • Mesajlar9
  • Rep puanı 0
Doooooooo
Şuan Online!
Rapor Et!
Şuan Online!
BroserBros Kurucu Admin
*******
Admin
05.05.2021 Yönetici Notu:

Kırık linkler kontrol edildi, kaldırıldı ve yenilendi. Tüm linkler tamamen çalışır durumda.
Şuan Offine!
Rapor Et!
Şuan Offine!
khaliloff17 Üye
*
Üye
  • Konular0
  • Mesajlar4
  • Rep puanı 0
teşekkürler
Şuan Offine!
Rapor Et!
Şuan Offine!
KaynY Üye
*
Üye
  • Konular0
  • Mesajlar1
  • Rep puanı 0
Teşekkürler.
Şuan Offine!
Rapor Et!
Şuan Offine!
qinq Üye
*
Üye
  • Konular0
  • Mesajlar2
  • Rep puanı 0
Teşekkürler.
Şuan Offine!
Rapor Et!
Şuan Offine!
eyb Üye
*
Üye
  • Konular0
  • Mesajlar11
  • Rep puanı 0
Teşekkürler.


Hızlı Menü: