⤤ Premium'a Yükselt
Filmbol Forum Film İndir BRRip XviD v Errementari (Errementari: The Blacksmith and The Devil) - 2017 - TR - BRRip XviD | tt5592878

Filmbol TV kullanıma açıldı. Bu adresten giriş yapabilirsin: Giriş





Errementari (Errementari: The Blacksmith and The Devil) - 2017 - TR - BRRip XviD | tt5592878
BroserBros
Errementari (Errementari: The Blacksmith and The Devil) - 2017 - TR - BRRip XviD | tt5592878
1
489
  • Derecelendirme: 0/5 - 0 oy
  • 1
  • 2
  • 3
  • 4
  • 5
Konuyu Okuyanlar:3 Ziyaretçi
Şuan Online!
Filmin Yayınlanma Tarihi: 2017 
WWW
Rapor Et!
Şuan Online!
BroserBros Kurucu Admin
*******
Admin



 Errementari



İspanya’nın Bask bölgesinde efsaneleşmiş hikayelerden yola çıkılarak sinemaya aktarılan korku ve fantastik türdeki Errementari filminde, kendini şeytanla savaşmaya adamış bir demircinin hayatı anlatılmaktadır. Yıllar boyunca şeytanın peşinden koştuktan sonra onu yakalayıp hapseden ve sürekli şeytana işkence eden acımasız demirci adamın hayatı çok güzel gitmektedir. Fakat ansızın ortaya çıkan yetim bir çocuk her şeyi bozacak ve demirci adamın mücadelesinin yeniden başlamasına sebep olacaktır…

Errementari (2017) (Errementari: The Blacksmith and The Devil) | tt5592878 Filmi Imdb'den 11,000 kişi tarafından oylandı ve 6,4 puan aldı. Bu film için editör puanı %66 olarak belirlendi. İyi Seyirler!

Teknik Detaylar

Kod :
General
Unique ID                                : 130742468193283865261606278172751040647 (0x625C155CF4DF48FF815D2B7CF87A1087)
Complete name                            : /home/BroserBros/Desktop/4/Errementari.2017.BRRip.XviD.TR.Filmbol.avi
Format                                   : Matroska
Format version                           : Version 4
File size                                : 1.12 GiB
Duration                                 : 1 h 39 min
Overall bit rate                         : 1 609 kb/s
Movie name                               : Errementari - Errementari: The Blacksmith and Devil - 2017 | Filmbol.org
Encoded date                             : UTC 2021-06-06 09:29:20
Writing application                      : mkvmerge v53.0.0 ('Fool's Gold') 64-bit
Writing library                          : libebml v1.4.1 + libmatroska v1.6.2
FileExtension_Invalid                    : mkv mk3d mka mks

Video
ID                                       : 1
Format                                   : MPEG-4 Visual
Format profile                           : Advanced [email protected]
Format settings                          : BVOP2
Format settings, BVOP                    : 2
Format settings, QPel                    : No
Format settings, GMC                     : No warppoints
Format settings, Matrix                  : Default (MPEG)
Muxing mode                              : Packed bitstream
Codec ID                                 : V_MS/VFW/FOURCC / XVID
Codec ID/Hint                            : XviD
Duration                                 : 1 h 39 min
Bit rate                                 : 1 479 kb/s
Width                                    : 720 pixels
Height                                   : 404 pixels
Display aspect ratio                     : 16:9
Frame rate mode                          : Constant
Frame rate                               : 24.000 FPS
Color space                              : YUV
Chroma subsampling                       : 4:2:0
Bit depth                                : 8 bits
Scan type                                : Progressive
Compression mode                         : Lossy
Bits/(Pixel*Frame)                       : 0.212
Stream size                              : 1.03 GiB (92%)
Title                                    : Errementari - Errementari: The Blacksmith and Devil - 2017 | Filmbol.org
Writing library                          : XviD 64
Default                                  : Yes
Forced                                   : No

Audio
ID                                       : 2
Format                                   : MPEG Audio
Format version                           : Version 1
Format profile                           : Layer 3
Format settings                          : Joint stereo / MS Stereo
Codec ID                                 : A_MPEG/L3
Codec ID/Hint                            : MP3
Duration                                 : 1 h 39 min
Bit rate mode                            : Constant
Bit rate                                 : 128 kb/s
Channel(s)                               : 2 channels
Sampling rate                            : 48.0 kHz
Frame rate                               : 41.667 FPS (1152 SPF)
Compression mode                         : Lossy
Stream size                              : 90.9 MiB (8%)
Title                                    : Errementari - Errementari: The Blacksmith and Devil - 2017 | Filmbol.org
Default                                  : Yes
Forced                                   : No

Film Detayları


 Errementari

 Errementari

 Errementari


Film Fragmanı


Film İndir


Rar Şifresi: filmbol.org



Uptobox ile indir

1Fichier ile indir

1Fichier'den İndiremiyor musun? Tıklayın!












Şuan Online!
Rapor Et!
Şuan Online!
BroserBros Kurucu Admin
*******
Admin
07.06.2021 Yönetici Notu:

Kırık linkler kontrol edildi, kaldırıldı ve yenilendi. Tüm linkler tamamen çalışır durumda.


Hızlı Menü: