⤤ Premium'a Yükselt
Filmbol Forum Film İndir BRRip XviD v Christopher Robin (Christopher Robin) - 2018 - TR - BRRip XviD | tt4575576

Filmbol TV kullanıma açıldı. Bu adresten giriş yapabilirsin: Giriş





Christopher Robin (Christopher Robin) - 2018 - TR - BRRip XviD | tt4575576
BroserBros
Christopher Robin (Christopher Robin) - 2018 - TR - BRRip XviD | tt4575576
6
690
  • Derecelendirme: 0/5 - 0 oy
  • 1
  • 2
  • 3
  • 4
  • 5
Konuyu Okuyanlar:1 Ziyaretçi
Şuan Online!
Filmin Yayınlanma Tarihi: 2018 
WWW
Rapor Et!
Şuan Online!
BroserBros Kurucu Admin
*******
Admin



 Christopher Robin



Christopher Robin, genç bir adamın yıllar sonra çocukluk arkadaşları ile bir araya gelişini konu ediyor. Artık yetişkin olmuş olan Christopher Robin, 100 Hektar Ormanı’ndaki maceralarından çok uzaklardadır. İş ve aile dengesini korumakta zorlanan Christopher, iş sebebiyle bir aile yolculuğunu kaçırınca sevimli dostu Winnie the Pooh tarafından ziyaret edilir. Sevimli ayının yardıma ihtiyacı vardır. Christopher Robin yeniden ormana dönerek dostlarına yardım ettiğinde, 100 Hektar Ormanı’nın sevimli sakinleri onun da yardıma ihtiyacı olduğunu fark eder. Christopher’ın peşinden gelen tüylü dostları ona hayattan keyif almayı öğretebilecek midir yoksa sadece başına daha çok iş mi açacaktır?

Christopher Robin (2018) (Christopher Robin) | tt4575576 Filmi Imdb'den 71,000 kişi tarafından oylandı ve 7,3 puan aldı. Bu film için editör puanı %81 olarak belirlendi. İyi Seyirler!

Teknik Detaylar

Kod :
General
Unique ID                                : 295816073804533349637007733495741777458 (0xDE8C1A7C2A798A3E4865BA7FE3838632)
Complete name                            : /home/BroserBros/Desktop/3/Christopher.Robin.2018.BRRip.XviD.TR.Filmbol.avi
Format                                   : Matroska
Format version                           : Version 4
File size                                : 1.25 GiB
Duration                                 : 1 h 43 min
Overall bit rate                         : 1 727 kb/s
Movie name                               : Christopher Robin - 2018 | Filmbol.org
Encoded date                             : UTC 2021-06-06 08:48:56
Writing application                      : mkvmerge v53.0.0 ('Fool's Gold') 64-bit
Writing library                          : libebml v1.4.1 + libmatroska v1.6.2
FileExtension_Invalid                    : mkv mk3d mka mks

Video
ID                                       : 1
Format                                   : MPEG-4 Visual
Format profile                           : [email protected]
Format settings, BVOP                    : No
Format settings, QPel                    : No
Format settings, GMC                     : No warppoints
Format settings, Matrix                  : Default (H.263)
Codec ID                                 : V_MS/VFW/FOURCC / XVID
Codec ID/Hint                            : XviD
Duration                                 : 1 h 43 min
Bit rate                                 : 1 597 kb/s
Width                                    : 720 pixels
Height                                   : 302 pixels
Display aspect ratio                     : 2.40:1
Original display aspect ratio            : 2.40:1
Frame rate mode                          : Constant
Frame rate                               : 23.976 FPS
Color space                              : YUV
Chroma subsampling                       : 4:2:0
Bit depth                                : 8 bits
Scan type                                : Progressive
Compression mode                         : Lossy
Bits/(Pixel*Frame)                       : 0.306
Stream size                              : 1.16 GiB (92%)
Title                                    : Christopher Robin - 2018 | Filmbol.org
Writing library                          : Lavc58.18.100
Default                                  : Yes
Forced                                   : No

Audio
ID                                       : 2
Format                                   : MPEG Audio
Format version                           : Version 1
Format profile                           : Layer 3
Format settings                          : Joint stereo / MS Stereo
Codec ID                                 : A_MPEG/L3
Codec ID/Hint                            : MP3
Duration                                 : 1 h 43 min
Bit rate mode                            : Constant
Bit rate                                 : 128 kb/s
Channel(s)                               : 2 channels
Sampling rate                            : 48.0 kHz
Frame rate                               : 41.667 FPS (1152 SPF)
Compression mode                         : Lossy
Stream size                              : 95.1 MiB (7%)
Title                                    : Christopher Robin - 2018 | Filmbol.org
Default                                  : Yes
Forced                                   : No

Film Detayları


 Christopher Robin

 Christopher Robin

 Christopher Robin


Film Fragmanı


Film İndir


Rar Şifresi: filmbol.org



Uptobox ile indir

1Fichier ile indir

1Fichier'den İndiremiyor musun? Tıklayın!












Şuan Offine!
Rapor Et!
Şuan Offine!
ercan Uzman Üye
**
Uzman Üye
  • Konular0
  • Mesajlar24
  • Rep puanı 0
tşk...
Şuan Offine!
Rapor Et!
Şuan Offine!
muratuzun1 Üye
*
Üye
  • Konular0
  • Mesajlar1
  • Rep puanı 0
mükemmel
Şuan Offine!
Rapor Et!
Şuan Offine!
Ap0calypse Süper Üye
***
Super Üye
  • Konular0
  • Mesajlar38
  • Rep puanı 0
eline sağlık
Şuan Online!
Rapor Et!
Şuan Online!
BroserBros Kurucu Admin
*******
Admin
07.06.2021 Yönetici Notu:

Kırık linkler kontrol edildi, kaldırıldı ve yenilendi. Tüm linkler tamamen çalışır durumda.
Şuan Offine!
Rapor Et!
Şuan Offine!
yasakral12 Üye
*
Üye
  • Konular0
  • Mesajlar7
  • Rep puanı 0
hadi bakalım
Şuan Offine!
Rapor Et!
Şuan Offine!
Benjamin001 Üye
*
Üye
  • Konular0
  • Mesajlar1
  • Rep puanı 0
Teşekkürler


Hızlı Menü: