⤤ Premium'a Yükselt

Merhaba, Ziyaretçi. Mega linklerinin bir kısmı deaktif halde ve yenileme çalışmalarına başladık. Bu süre içinde ikinci duyuruya kadar mega linklerini raporlamayın!! x

Filmbol Forum Film İndir BRRip XviD v Karanlık Zihinler (The Darkest Minds) - 2018 - TR - BRRip XviD | tt4073790

Filmbol TV kullanıma açıldı. Bu adresten giriş yapabilirsin: Giriş





Karanlık Zihinler (The Darkest Minds) - 2018 - TR - BRRip XviD | tt4073790
BroserBros
Karanlık Zihinler (The Darkest Minds) - 2018 - TR - BRRip XviD | tt4073790
2
599
  • Derecelendirme: 0/5 - 0 oy
  • 1
  • 2
  • 3
  • 4
  • 5
Konuyu Okuyanlar:2 Ziyaretçi
Şuan Online!
Filmin Yayınlanma Tarihi: 2018 
WWW
Rapor Et!
Şuan Online!
BroserBros Kurucu Admin
*******
Admin



 Karanlık Zihinler



Karanlık Zihinler, milyonlarca insanın ölümüne neden olan salgından kurtulmayı başaran bir grup gencin hikayesini konu ediyor. Amerika’daki bütün gençleri öldüren korkunç vebada hayatta kalmayı başaran Ruby Dale, özel güçlere sahiptir. Kendisi gibi diğer hayatta kalanlar da değişik güçlere sahiplerdir ve sadece renklerle tanımlanırlar; yeşiller (ileri zeka), maviler (telekinezi), sarılar (elektriği kontrol edebilme), turuncular (zihin kontrol) ve kırmızılar (ateşi kontrol edebilme). Ruby ise “turuncu” türünün çok güçlü bir üyesidir. Ruby ve arkadaşları, gönderildikleri korkutucu devlet tesisi Thurmond’dan kaçtıklarında hayat bambaşka bir hal alır. East River’daki güvenli bölgeye ulaşmaya çalışan grup, yetişkinlerin gençlere savaş açtığı bu dünyada yalnızca kaçmanın yeterli olmadığını fark etmeye başlarlar…

Karanlık Zihinler (2018) (The Darkest Minds) | tt4073790 Filmi Imdb'den 30,000 kişi tarafından oylandı ve 5,7 puan aldı. Bu film için editör puanı %63 olarak belirlendi. İyi Seyirler!

Teknik Detaylar

Kod :
General
Unique ID                                : 261228370773249393996689429077384232599 (0xC486C11099FDDD8E647A97A47CFFFE97)
Complete name                            : /home/BroserBros/Desktop/7/Karanlık.Zihinler.2018.BRRip.XviD.TR.Filmbol.avi
Format                                   : Matroska
Format version                           : Version 4
File size                                : 1.25 GiB
Duration                                 : 1 h 43 min
Overall bit rate                         : 1 727 kb/s
Movie name                               : Karanlık Zihinler - The Darkest Minds - 2018 | Filmbol.org
Encoded date                             : UTC 2021-06-07 16:22:32
Writing application                      : mkvmerge v53.0.0 ('Fool's Gold') 64-bit
Writing library                          : libebml v1.4.1 + libmatroska v1.6.2
FileExtension_Invalid                    : mkv mk3d mka mks

Video
ID                                       : 1
Format                                   : MPEG-4 Visual
Format profile                           : [email protected]
Format settings, BVOP                    : No
Format settings, QPel                    : No
Format settings, GMC                     : No warppoints
Format settings, Matrix                  : Default (H.263)
Codec ID                                 : V_MS/VFW/FOURCC / XVID
Codec ID/Hint                            : XviD
Duration                                 : 1 h 43 min
Bit rate                                 : 1 598 kb/s
Width                                    : 720 pixels
Height                                   : 304 pixels
Display aspect ratio                     : 2.40:1
Frame rate mode                          : Constant
Frame rate                               : 23.976 FPS
Color space                              : YUV
Chroma subsampling                       : 4:2:0
Bit depth                                : 8 bits
Scan type                                : Progressive
Compression mode                         : Lossy
Bits/(Pixel*Frame)                       : 0.304
Stream size                              : 1.16 GiB (92%)
Title                                    : Karanlık Zihinler - The Darkest Minds - 2018 | Filmbol.org
Writing library                          : Lavc58.18.100
Default                                  : Yes
Forced                                   : No

Audio
ID                                       : 2
Format                                   : MPEG Audio
Format version                           : Version 1
Format profile                           : Layer 3
Format settings                          : Joint stereo / MS Stereo
Codec ID                                 : A_MPEG/L3
Codec ID/Hint                            : MP3
Duration                                 : 1 h 43 min
Bit rate mode                            : Constant
Bit rate                                 : 128 kb/s
Channel(s)                               : 2 channels
Sampling rate                            : 48.0 kHz
Frame rate                               : 41.667 FPS (1152 SPF)
Compression mode                         : Lossy
Stream size                              : 95.0 MiB (7%)
Title                                    : Karanlık Zihinler - The Darkest Minds - 2018 | Filmbol.org
Default                                  : Yes
Forced                                   : No

Film Detayları


 Karanlık Zihinler

 Karanlık Zihinler

 Karanlık Zihinler


Film Fragmanı


Film İndir


Rar Şifresi: filmbol.org



Uptobox ile indir

1Fichier ile indir

1Fichier'den İndiremiyor musun? Tıklayın!












Şuan Offine!
Rapor Et!
Şuan Offine!
Furkan61 Cezalı Üye
  • Konular0
  • Mesajlar288
güzel
Şuan Online!
Rapor Et!
Şuan Online!
BroserBros Kurucu Admin
*******
Admin
08.06.2021 Yönetici Notu:

Kırık linkler kontrol edildi, kaldırıldı ve yenilendi. Tüm linkler tamamen çalışır durumda.


Hızlı Menü: