⤤ Premium'a Yükselt
Filmbol Forum Film İndir 1080P v Ayin (Hereditary) - 2018 - TR+ORG - 1080P | tt7784604

Filmbol TV kullanıma açıldı. Bu adresten giriş yapabilirsin: Giriş





Ayin (Hereditary) - 2018 - TR+ORG - 1080P | tt7784604
BroserBros
Ayin (Hereditary) - 2018 - TR+ORG - 1080P | tt7784604
6
913
  • Derecelendirme: 0/5 - 0 oy
  • 1
  • 2
  • 3
  • 4
  • 5
Konuyu Okuyanlar:1 Ziyaretçi
Şuan Online!
Filmin Yayınlanma Tarihi: 2018 
WWW
Rapor Et!
Şuan Online!
BroserBros Kurucu Admin
*******
Admin



 Ayin



Graham ailesinin sert maderşahisi Ellen öldüğünde, kızı Annie ve ailesi atalarının gizemli ve giderek korkunçlaşan sırlarını keşfetmeye başlar. Keşfettikleri karanlıklaştıkça, aile üyeleri kendilerine miras kalmış gibi görünen bu korkunç kaderden kurtulmak için daha fazla mücadele etmek zorunda kalır. Ailevi bir trajediyi uğursuz ve derinden sarsıcı bir şeye dönüştüren olaylar, kalan paramparça mirasın gölgesini taşımaktadır…

Ayin (2018) (Hereditary) | tt7784604 Filmi Imdb'den 255,000 kişi tarafından oylandı ve 7,3 puan aldı. Bu film için editör puanı %71 olarak belirlendi. İyi Seyirler!

Teknik Detaylar

Kod :
General
Unique ID                                : 309951029391419483635041370467108724556 (0xE92E6599EB1BDA66BF37701FD4211F4C)
Complete name                            : /home/BroserBros/Desktop/6/Ayin.2018.1080p.BluRay.x264.TR.ENG.Filmbol.mkv
Format                                   : Matroska
Format version                           : Version 4
File size                                : 2.60 GiB
Duration                                 : 2 h 7 min
Overall bit rate                         : 2 918 kb/s
Movie name                               : Ayin - Hereditary - 2018 | Filmbol.org
Encoded date                             : UTC 2021-06-09 14:15:32
Writing application                      : mkvmerge v53.0.0 ('Fool's Gold') 64-bit
Writing library                          : libebml v1.4.1 + libmatroska v1.6.2

Video
ID                                       : 1
Format                                   : AVC
Format/Info                              : Advanced Video Codec
Format profile                           : [email protected]
Format settings                          : CABAC / 4 Ref Frames
Format settings, CABAC                   : Yes
Format settings, Reference frames        : 4 frames
Codec ID                                 : V_MPEG4/ISO/AVC
Duration                                 : 2 h 7 min
Bit rate                                 : 2 500 kb/s
Width                                    : 1 920 pixels
Height                                   : 960 pixels
Display aspect ratio                     : 2.000
Frame rate mode                          : Constant
Frame rate                               : 23.976 (23976/1000) FPS
Color space                              : YUV
Chroma subsampling                       : 4:2:0
Bit depth                                : 8 bits
Scan type                                : Progressive
Bits/(Pixel*Frame)                       : 0.057
Stream size                              : 2.22 GiB (86%)
Title                                    : 1080P - Filmbol.org
Writing library                          : x264 core 152 r2851M ba24899
Encoding settings                        : cabac=1 / ref=4 / deblock=1:-1:-1 / analyse=0x3:0x113 / me=umh / subme=9 / psy=1 / psy_rd=1.00:0.15 / mixed_ref=1 / me_range=24 / chroma_me=1 / trellis=2 / 8x8dct=1 / cqm=0 / deadzone=21,11 / fast_pskip=1 / chroma_qp_offset=-3 / threads=32 / lookahead_threads=4 / sliced_threads=0 / nr=0 / decimate=1 / interlaced=0 / bluray_compat=0 / constrained_intra=0 / bframes=3 / b_pyramid=2 / b_adapt=2 / b_bias=0 / direct=3 / weightb=1 / open_gop=0 / weightp=2 / keyint=250 / keyint_min=25 / scenecut=40 / intra_refresh=0 / rc_lookahead=50 / rc=2pass / mbtree=1 / bitrate=2500 / ratetol=1.0 / qcomp=0.60 / qpmin=0 / qpmax=69 / qpstep=4 / cplxblur=20.0 / qblur=0.5 / vbv_maxrate=31250 / vbv_bufsize=31250 / nal_hrd=none / filler=0 / ip_ratio=1.40 / aq=3:1.00
Default                                  : Yes
Forced                                   : No

Audio #1
ID                                       : 2
Format                                   : AC-3
Format/Info                              : Audio Coding 3
Commercial name                          : Dolby Digital
Codec ID                                 : A_AC3
Duration                                 : 2 h 7 min
Bit rate mode                            : Constant
Bit rate                                 : 192 kb/s
Channel(s)                               : 2 channels
Channel layout                           : L R
Sampling rate                            : 48.0 kHz
Frame rate                               : 31.250 FPS (1536 SPF)
Compression mode                         : Lossy
Delay relative to video                  : -43 ms
Stream size                              : 175 MiB (7%)
Title                                    : Türkçe - Filmbol.org
Language                                 : Turkish
Service kind                             : Complete Main
Default                                  : Yes
Forced                                   : Yes

Audio #2
ID                                       : 3
Format                                   : AAC LC
Format/Info                              : Advanced Audio Codec Low Complexity
Codec ID                                 : A_AAC-2
Duration                                 : 2 h 7 min
Bit rate                                 : 224 kb/s
Channel(s)                               : 6 channels
Channel layout                           : C L R Ls Rs LFE
Sampling rate                            : 48.0 kHz
Frame rate                               : 46.875 FPS (1024 SPF)
Compression mode                         : Lossy
Delay relative to video                  : -43 ms
Stream size                              : 204 MiB (8%)
Title                                    : Orijinal Dil - Filmbol.org
Language                                 : English
Default                                  : No
Forced                                   : No

Text
ID                                       : 4
Format                                   : UTF-8
Codec ID                                 : S_TEXT/UTF8
Codec ID/Info                            : UTF-8 Plain Text
Duration                                 : 2 h 2 min
Bit rate                                 : 35 b/s
Count of elements                        : 873
Stream size                              : 31.9 KiB (0%)
Title                                    : Türkçe - Filmbol.org
Language                                 : Turkish
Default                                  : No
Forced                                   : No

Film Detayları


 Ayin

 Ayin

 Ayin


Film Fragmanı


Film İndir


Rar Şifresi: filmbol.org


Uptobox ile indir

1Fichier ile indir

1Fichier'den İndiremiyor musun? Tıklayın!












Şuan Offine!
Rapor Et!
Şuan Offine!
caner Süper Üye
***
Super Üye
  • Konular0
  • Mesajlar51
  • Rep puanı 0
teşekkürler
Şuan Offine!
Rapor Et!
Şuan Offine!
emre_3434 Süper Üye
***
Super Üye
  • Konular5
  • Mesajlar47
  • Rep puanı 5
Paylaşım için çok teşekkürler. Emeğinize sağlık hocam.
Bakalım film nasılmış. İzledikten sonra yorum yaparım.
Şuan Offine!
Rapor Et!
Şuan Offine!
Mert Üye
*
Üye
  • Konular0
  • Mesajlar1
  • Rep puanı 0
çok güzel
Şuan Offine!
Rapor Et!
Şuan Offine!
arpaz76 Üye
*
Üye
  • Konular0
  • Mesajlar5
  • Rep puanı 0
Teşekkür ederim
Şuan Online!
Rapor Et!
Şuan Online!
BroserBros Kurucu Admin
*******
Admin
10.06.2021 Yönetici Notu:

Kırık linkler kontrol edildi, kaldırıldı ve yenilendi. Tüm linkler tamamen çalışır durumda.
Şuan Offine!
Rapor Et!
Şuan Offine!
wintalker46 Uzman Üye
**
Uzman Üye
  • Konular0
  • Mesajlar314
  • Rep puanı 0
Teşekkürler.


Hızlı Menü: