⤤ Premium'a Yükselt

Merhaba, Ziyaretçi. Mega linklerinin bir kısmı deaktif halde ve yenileme çalışmalarına başladık. Bu süre içinde ikinci duyuruya kadar mega linklerini raporlamayın!! x

Filmbol Forum Film İndir BRRip XviD v The Two Popes (İki Papa) - 2019 - TR - BRRip XviD | tt8404614

Filmbol TV kullanıma açıldı. Bu adresten giriş yapabilirsin: Giriş





The Two Popes (İki Papa) - 2019 - TR - BRRip XviD | tt8404614
BroserBros
The Two Popes (İki Papa) - 2019 - TR - BRRip XviD | tt8404614
3
616
  • Derecelendirme: 0/5 - 0 oy
  • 1
  • 2
  • 3
  • 4
  • 5
Konuyu Okuyanlar:2 Ziyaretçi
Şuan Online!
Filmin Yayınlanma Tarihi: 2019 
WWW
Rapor Et!
Şuan Online!
BroserBros Kurucu Admin
*******
Admin



 The Two Popes



The Two Popes, Katolik Kilisesi’nde iki karşıt görüşlü güç sahibi adamın rekabetini konu ediniyor. Her iki lider de geçmişlerini ve modern dünyanın ihtiyaçlarını tartmalı, böylece Katolik Kilisesi’ni ileriye taşımalıdır.

The Two Popes (2019) (İki Papa) | tt8404614 Filmi Imdb'den 120,000 kişi tarafından oylandı ve 7,6 puan aldı. Bu film için editör puanı %81 olarak belirlendi. İyi Seyirler!

Teknik Detaylar

Kod :
General
Unique ID                                : 9895751200424635615601746117754429515 (0x771DA33FF379BE91E86332DE9D5204B)
Complete name                            : /home/BroserBros/Desktop/8/The.Two.Popes.2019.BRRip.XviD.TR.Filmbol.avi
Format                                   : Matroska
Format version                           : Version 4
File size                                : 1.01 GiB
Duration                                 : 2 h 5 min
Overall bit rate                         : 1 153 kb/s
Movie name                               : The Two Popes - İki Papa - 2019 | Filmbol.org
Encoded date                             : UTC 2021-06-09 15:36:05
Writing application                      : mkvmerge v53.0.0 ('Fool's Gold') 64-bit
Writing library                          : libebml v1.4.1 + libmatroska v1.6.2
FileExtension_Invalid                    : mkv mk3d mka mks

Video
ID                                       : 1
Format                                   : MPEG-4 Visual
Format profile                           : Advanced [email protected]
Format settings                          : BVOP2
Format settings, BVOP                    : 2
Format settings, QPel                    : No
Format settings, GMC                     : No warppoints
Format settings, Matrix                  : Default (H.263)
Codec ID                                 : V_MS/VFW/FOURCC / DIVX
Codec ID/Info                            : Project Mayo
Codec ID/Hint                            : DivX 4
Duration                                 : 2 h 5 min
Bit rate                                 : 959 kb/s
Width                                    : 672 pixels
Height                                   : 378 pixels
Display aspect ratio                     : 16:9
Frame rate mode                          : Constant
Frame rate                               : 24.000 FPS
Color space                              : YUV
Chroma subsampling                       : 4:2:0
Bit depth                                : 8 bits
Scan type                                : Progressive
Compression mode                         : Lossy
Bits/(Pixel*Frame)                       : 0.157
Stream size                              : 864 MiB (83%)
Title                                    : The Two Popes - İki Papa - 2019 | Filmbol.org
Writing library                          : XviD 67
Default                                  : Yes
Forced                                   : No

Audio
ID                                       : 2
Format                                   : MPEG Audio
Format version                           : Version 1
Format profile                           : Layer 3
Codec ID                                 : A_MPEG/L3
Codec ID/Hint                            : MP3
Duration                                 : 2 h 5 min
Bit rate mode                            : Constant
Bit rate                                 : 192 kb/s
Channel(s)                               : 2 channels
Sampling rate                            : 48.0 kHz
Frame rate                               : 41.667 FPS (1152 SPF)
Compression mode                         : Lossy
Stream size                              : 173 MiB (17%)
Title                                    : The Two Popes - İki Papa - 2019 | Filmbol.org
Writing library                          : LAME3.100
Default                                  : Yes
Forced                                   : No

Film Detayları


 The Two Popes

 The Two Popes

 The Two Popes


Film Fragmanı


Film İndir


Rar Şifresi: filmbol.org



Uptobox ile indir

1Fichier ile indir

1Fichier'den İndiremiyor musun? Tıklayın!












Şuan Offine!
Rapor Et!
Şuan Offine!
simurg26 Uzman Üye
**
Uzman Üye
  • Konular0
  • Mesajlar8
  • Rep puanı 0
teşekkürler
Şuan Offine!
Rapor Et!
Şuan Offine!
enesus Üye
*
Üye
  • Konular0
  • Mesajlar2
  • Rep puanı 0
teşekkürler harika Smile
Şuan Online!
Rapor Et!
Şuan Online!
BroserBros Kurucu Admin
*******
Admin
10.06.2021 Yönetici Notu:

Kırık linkler kontrol edildi, kaldırıldı ve yenilendi. Tüm linkler tamamen çalışır durumda.


Hızlı Menü: