⤤ Premium'a Yükselt

Merhaba, Ziyaretçi. Mega linklerinin bir kısmı deaktif halde ve yenileme çalışmalarına başladık. Bu süre içinde ikinci duyuruya kadar mega linklerini raporlamayın!! x

Filmbol Forum Film İndir 1080P v İnanılmaz Aile 2 (Incredibles 2) - 2018 - TR+ORG - 1080P | tt3606756

Filmbol TV kullanıma açıldı. Bu adresten giriş yapabilirsin: Giriş





İnanılmaz Aile 2 (Incredibles 2) - 2018 - TR+ORG - 1080P | tt3606756
BroserBros
İnanılmaz Aile 2 (Incredibles 2) - 2018 - TR+ORG - 1080P | tt3606756
19
1537
  • Derecelendirme: 0/5 - 0 oy
  • 1
  • 2
  • 3
  • 4
  • 5
Konuyu Okuyanlar:4 Ziyaretçi
Şuan Online!
Filmin Yayınlanma Tarihi: 2019 
WWW
Rapor Et!
Şuan Online!
BroserBros Kurucu Admin
*******
Admin



 İnanılmaz Aile 2



İnanılmaz Aile 2, süper güçlere sahip olan bir ailenin atıldığı maceraları konu ediyor. Süper güçlere sahip aile suçla savaşmaya devam ederken, süper kahramanların yasal olmaması sıkıntı yaratmaktadır. Ancak bu konudaki umut ışığı, ailenin Elastigirl lakaplı annesi Helen’dır. Helen süper kahramanların önemini kanıtlamak üzere dünyayı kurtarmakla meşgulken, evdeki işleyiş, Violet ve Dash ile birlikte evde kalan Bob’un sorumluluğundadır. Küçük Jack-Jack’in de süper güçlerinin olduğunun ortaya çıkmasıyla birlikte, evin kontrolünü sağlamak iyice zorlaşır. Ancak yeni bir kötü dahinin incelikli planı dünyayı tehdit etmeye başlayınca, aile ve Frozone yeniden birlikte çalışmanın bir yolunu bulmalı ve tehditi savuşturmayı başarmalıdır.

İnanılmaz Aile 2 (2018) (Incredibles 2) | tt3606756 Filmi Imdb'den 260,000 kişi tarafından oylandı ve 7,6 puan aldı. Bu film için editör puanı %84 olarak belirlendi. İyi Seyirler!

Teknik Detaylar

Kod :
General
Unique ID                                : 320586982472277217348472085366454404033 (0xF12ECE931F5903E388D3DEF571BCC3C1)
Complete name                            : /home/BroserBros/Desktop/4/İnanılmaz.Aile.2.2018.1080p.BluRay.x264.TR.ENG.Filmbol.mkv
Format                                   : Matroska
Format version                           : Version 4
File size                                : 2.19 GiB
Duration                                 : 1 h 57 min
Overall bit rate                         : 2 661 kb/s
Movie name                               : İnanılmaz Aile 2 - Incredibles 2 - 2018 | Filmbol.org
Encoded date                             : UTC 2021-06-09 09:49:16
Writing application                      : mkvmerge v53.0.0 ('Fool's Gold') 64-bit
Writing library                          : libebml v1.4.1 + libmatroska v1.6.2

Video
ID                                       : 1
Format                                   : AVC
Format/Info                              : Advanced Video Codec
Format profile                           : [email protected]
Format settings                          : CABAC / 4 Ref Frames
Format settings, CABAC                   : Yes
Format settings, Reference frames        : 4 frames
Codec ID                                 : V_MPEG4/ISO/AVC
Duration                                 : 1 h 57 min
Bit rate                                 : 2 150 kb/s
Width                                    : 1 920 pixels
Height                                   : 800 pixels
Display aspect ratio                     : 2.40:1
Frame rate mode                          : Constant
Frame rate                               : 23.976 (24000/1001) FPS
Color space                              : YUV
Chroma subsampling                       : 4:2:0
Bit depth                                : 8 bits
Scan type                                : Progressive
Bits/(Pixel*Frame)                       : 0.058
Stream size                              : 1.77 GiB (81%)
Title                                    : 1080P - Filmbol.org
Writing library                          : x264 core 152
Encoding settings                        : cabac=1 / ref=4 / deblock=1:-1:-1 / analyse=0x3:0x133 / me=umh / subme=9 / psy=1 / psy_rd=1.00:0.15 / mixed_ref=1 / me_range=24 / chroma_me=1 / trellis=2 / 8x8dct=1 / cqm=0 / deadzone=21,11 / fast_pskip=0 / chroma_qp_offset=-3 / threads=12 / lookahead_threads=1 / sliced_threads=0 / nr=0 / decimate=1 / interlaced=0 / bluray_compat=0 / constrained_intra=0 / bframes=3 / b_pyramid=2 / b_adapt=2 / b_bias=0 / direct=3 / weightb=1 / open_gop=0 / weightp=2 / keyint=250 / keyint_min=23 / scenecut=40 / intra_refresh=0 / rc_lookahead=60 / rc=2pass / mbtree=1 / bitrate=2150 / ratetol=1.0 / qcomp=0.60 / qpmin=0 / qpmax=69 / qpstep=4 / cplxblur=20.0 / qblur=0.5 / vbv_maxrate=31250 / vbv_bufsize=31250 / nal_hrd=none / filler=0 / ip_ratio=1.40 / aq=1:1.00
Default                                  : Yes
Forced                                   : No

Audio #1
ID                                       : 2
Format                                   : AC-3
Format/Info                              : Audio Coding 3
Commercial name                          : Dolby Digital
Codec ID                                 : A_AC3
Duration                                 : 1 h 57 min
Bit rate mode                            : Constant
Bit rate                                 : 384 kb/s
Channel(s)                               : 6 channels
Channel layout                           : L R C LFE Ls Rs
Sampling rate                            : 48.0 kHz
Frame rate                               : 31.250 FPS (1536 SPF)
Compression mode                         : Lossy
Stream size                              : 324 MiB (14%)
Title                                    : Türkçe - Filmbol.org
Language                                 : Turkish
Service kind                             : Complete Main
Default                                  : Yes
Forced                                   : No

Audio #2
ID                                       : 3
Format                                   : AAC LC
Format/Info                              : Advanced Audio Codec Low Complexity
Codec ID                                 : A_AAC-2
Duration                                 : 1 h 57 min
Bit rate                                 : 125 kb/s
Channel(s)                               : 2 channels
Channel layout                           : L R
Sampling rate                            : 48.0 kHz
Frame rate                               : 46.875 FPS (1024 SPF)
Compression mode                         : Lossy
Stream size                              : 105 MiB (5%)
Title                                    : Orijinal Dil - Filmbol.org
Language                                 : English
Default                                  : No
Forced                                   : No

Text
ID                                       : 4
Format                                   : UTF-8
Codec ID                                 : S_TEXT/UTF8
Codec ID/Info                            : UTF-8 Plain Text
Duration                                 : 1 h 46 min
Bit rate                                 : 78 b/s
Count of elements                        : 1581
Stream size                              : 61.5 KiB (0%)
Title                                    : Türkçe - Filmbol.org
Language                                 : Turkish
Default                                  : No
Forced                                   : No

Film Detayları


 İnanılmaz Aile 2

 İnanılmaz Aile 2

 İnanılmaz Aile 2


Film Fragmanı


Film İndir


Rar Şifresi: filmbol.org


Uptobox ile indir

1Fichier ile indir

1Fichier'den İndiremiyor musun? Tıklayın!












Şuan Offine!
Rapor Et!
Şuan Offine!
inansah Uzman Üye
**
Uzman Üye
  • Konular0
  • Mesajlar13
  • Rep puanı 0
süper bir şey
Şuan Offine!
Rapor Et!
Şuan Offine!
Bugra6128 Uzman Üye
**
Uzman Üye
  • Konular0
  • Mesajlar6
  • Rep puanı 0
Çocukluğumun süper bir animasyonu kesinlikle izlemeye değer
Şuan Offine!
Rapor Et!
Şuan Offine!
kubikanber Uzman Üye
**
Uzman Üye
  • Konular0
  • Mesajlar22
  • Rep puanı 0
Smile Wink Big Grin Cool
Şuan Offine!
Rapor Et!
Şuan Offine!
kdssadkcncjd Cezalı Üye
  • Konular0
  • Mesajlar5
gree Shy
Şuan Online!
Rapor Et!
Şuan Online!
BroserBros Kurucu Admin
*******
Admin
10.06.2021 Yönetici Notu:

Kırık linkler kontrol edildi, kaldırıldı ve yenilendi. Tüm linkler tamamen çalışır durumda.
Şuan Offine!
Rapor Et!
Şuan Offine!
Ceko Uzman Üye
**
Uzman Üye
  • Konular0
  • Mesajlar16
  • Rep puanı 0
emeğine sağlık olsun ...
Şuan Online!
Rapor Et!
Şuan Online!
ahmettuncr Süper Üye
***
Super Üye
  • Konular0
  • Mesajlar50
  • Rep puanı 0
süper!
Şuan Offine!
Rapor Et!
Şuan Offine!
KeNZai Üye
*
Üye
  • Konular0
  • Mesajlar52
  • Rep puanı 0
teşekkürler
Şuan Offine!
Rapor Et!
Şuan Offine!
Samet2665 Üye
*
Üye
  • Konular0
  • Mesajlar7
  • Rep puanı 0
Teşekkürler.


Hızlı Menü: