Filmbol Forum Film İndir 1080P v Thor (Thor 1) - 2011 - TR+ORG - 1080P | tt0800369
Mega linklerinin şikayet edilmemesi için global erişime kapatıp sadece yorum yapanlara açıyoruz. Bu linkleri gizleme işlemini mecburen yapıyoruz ve yorum yapmanızın siteye değil size faydası vardır. Teşekürler yazmayı çok görüp, Random/Spam mesajlar atarak Mega linklerini açmaya çalışan kullanıcılara önce süresiz ban, devam ederse IP ban atacağız.
Filmbol'da moderatör olmak ister misiniz? Bizimle iletişime geçmek için tıklayın!
Thor (Thor 1) - 2011 - TR+ORG - 1080P | tt0800369
BroserBros
Thor (Thor 1) - 2011 - TR+ORG - 1080P | tt0800369
9
3418
  • Derecelendirme: 0/5 - 0 oy
  • 1
  • 2
  • 3
  • 4
  • 5
Konuyu Okuyanlar:1 Ziyaretçi
Şuan Online!
Filmin Yayınlanma Tarihi: 2011 
WWW
Şuan Online!
BroserBros Kurucu Admin
*******
Admin



 Thor



Güçlü fakat kibirli bir tanrı olan Thor, bu halinden dolayı ceza olarak Asgard‘dan Midgard‘a (Dünyaya) gönderilir.

Thor (2011) (Thor 1) | tt0800369 Filmi Imdb'den 760,000 kişi tarafından oylandı ve 7,0 puan aldı. Bu film için editör puanı %84 olarak belirlendi. İyi Seyirler!

Teknik Detaylar

Kod :
General
Unique ID                                : 248601066969459813072459852595196251767 (0xBB06D2EBA7AE0605A066F66322F6CE77)
Complete name                            : /home/BroserBros/Desktop/8/Thor.2011.1080p.BluRay.x264.TR.ENG.Filmbol.mkv
Format                                   : Matroska
Format version                           : Version 4
File size                                : 1.66 GiB
Duration                                 : 1 h 54 min
Overall bit rate                         : 2 068 kb/s
Movie name                               : Thor - 2011 | Filmbol.org
Encoded date                             : UTC 2021-03-10 09:38:28
Writing application                      : mkvmerge v53.0.0 ('Fool's Gold') 64-bit
Writing library                          : libebml v1.4.1 + libmatroska v1.6.2

Video
ID                                       : 1
Format                                   : AVC
Format/Info                              : Advanced Video Codec
Format profile                           : [email protected]
Format settings                          : CABAC / 5 Ref Frames
Format settings, CABAC                   : Yes
Format settings, Reference frames        : 5 frames
Codec ID                                 : V_MPEG4/ISO/AVC
Duration                                 : 1 h 54 min
Bit rate                                 : 1 906 kb/s
Width                                    : 1 920 pixels
Height                                   : 816 pixels
Display aspect ratio                     : 2.35:1
Frame rate mode                          : Constant
Frame rate                               : 23.976 (24000/1001) FPS
Color space                              : YUV
Chroma subsampling                       : 4:2:0
Bit depth                                : 8 bits
Scan type                                : Progressive
Bits/(Pixel*Frame)                       : 0.051
Stream size                              : 1.53 GiB (92%)
Title                                    : 1080P - Filmbol.org
Writing library                          : x264 core 120 r2164 da19765
Encoding settings                        : cabac=1 / ref=5 / deblock=1:0:0 / analyse=0x3:0x113 / me=umh / subme=8 / psy=1 / psy_rd=1.00:0.15 / mixed_ref=1 / me_range=16 / chroma_me=1 / trellis=1 / 8x8dct=1 / cqm=0 / deadzone=21,11 / fast_pskip=1 / chroma_qp_offset=-3 / threads=6 / sliced_threads=0 / nr=0 / decimate=1 / interlaced=0 / bluray_compat=0 / constrained_intra=0 / bframes=10 / b_pyramid=2 / b_adapt=2 / b_bias=0 / direct=3 / weightb=1 / open_gop=0 / weightp=2 / keyint=240 / keyint_min=23 / scenecut=40 / intra_refresh=0 / rc_lookahead=50 / rc=2pass / mbtree=1 / bitrate=1906 / ratetol=1.0 / qcomp=0.60 / qpmin=10 / qpmax=51 / qpstep=4 / cplxblur=20.0 / qblur=0.5 / ip_ratio=1.40 / aq=1:1.00
Default                                  : Yes
Forced                                   : No

Audio #1
ID                                       : 2
Format                                   : MPEG Audio
Format version                           : Version 1
Format profile                           : Layer 3
Format settings                          : Joint stereo / MS Stereo
Codec ID                                 : A_MPEG/L3
Codec ID/Hint                            : MP3
Duration                                 : 1 h 54 min
Bit rate mode                            : Constant
Bit rate                                 : 128 kb/s
Channel(s)                               : 2 channels
Sampling rate                            : 44.1 kHz
Frame rate                               : 38.281 FPS (1152 SPF)
Compression mode                         : Lossy
Stream size                              : 105 MiB (6%)
Title                                    : Türkçe - Filmbol.org
Language                                 : Turkish
Default                                  : Yes
Forced                                   : No

Audio #2
ID                                       : 3
Format                                   : AAC LC SBR
Format/Info                              : Advanced Audio Codec Low Complexity with Spectral Band Replication
Commercial name                          : HE-AAC
Format settings                          : Explicit
Codec ID                                 : A_AAC-2
Duration                                 : 1 h 54 min
Bit rate                                 : 32.0 kb/s
Channel(s)                               : 2 channels
Channel layout                           : L R
Sampling rate                            : 48.0 kHz
Frame rate                               : 23.438 FPS (2048 SPF)
Compression mode                         : Lossy
Stream size                              : 26.3 MiB (2%)
Title                                    : Orjinal Dil - Filmbol.org
Language                                 : English
Default                                  : No
Forced                                   : No

Text
ID                                       : 4
Format                                   : UTF-8
Codec ID                                 : S_TEXT/UTF8
Codec ID/Info                            : UTF-8 Plain Text
Duration                                 : 1 h 54 min
Bit rate                                 : 46 b/s
Count of elements                        : 947
Stream size                              : 38.6 KiB (0%)
Title                                    : Türkçe Altyazı - Filmbol.org
Language                                 : Turkish
Default                                  : No
Forced                                   : No

Film Detayları


 Thor

 Thor

 Thor


Film Fragmanı


Film Detayları

Uptobox ile indir

1Fichier ile indir

1Fichier'den İndiremiyor musun? Tıklayın!


Mega linki şuan da gizli. Kullanıma açmak için konuya yorum yapın ve ardından sayfayı yenileyin.

Mega


Bunun için üzgünüz ancak, bu linke sadece premium üyeler erişebilir.

Filmbol Cloud





Şuan Offine!
Şuan Offine!
ersansiz Yeni Üye
*
Üye

  • Konular0
  • Mesajlar1
  • Rep puanı 0
Türkçe dublaj yazıp ingilizce orak çalışıyor varmı bir çözümü
Şuan Online!
Şuan Online!
BroserBros Kurucu Admin
*******
Admin

(15-11-2017, Saat: 02:56)ersansiz Adlı Kullanıcıdan Alıntı: Türkçe dublaj yazıp ingilizce orak çalışıyor varmı bir çözümü

Dili VLC media player ile değiştirebilirsiniz.
Şuan Offine!
Şuan Offine!
Yağız Akel Yeni Üye
*
Üye

  • Konular0
  • Mesajlar1
  • Rep puanı 0
(15-12-2017, Saat: 19:02)BroserBros Adlı Kullanıcıdan Alıntı:
(15-11-2017, Saat: 02:56)ersansiz Adlı Kullanıcıdan Alıntı: Türkçe dublaj yazıp ingilizce orak çalışıyor varmı bir çözümü

Dili VLC media player ile değiştirebilirsiniz.

Nasıl değiştirildiği hakkında bilgi verirmisiniz?

Ben filmi izlerken ses bölümünden türkçe dublaj seçeneğini seçtiğim halde film ingilizce oynatılıyor.

Lütfen yardım edin.
Şuan Offine!
Şuan Offine!
emircan Süper Üye
***
Super Üye

  • Konular0
  • Mesajlar18
  • Rep puanı 0
güzel admin
Şuan Online!
Şuan Online!
BroserBros Kurucu Admin
*******
Admin

05.01.2020; Kırık linkler kaldırıldı, orjinal ses kaldırıldı ve türkçe ses eklendi.
Şuan Offine!
Şuan Offine!
arizona17 Uzman Üye
**
Uzman Üye

  • Konular0
  • Mesajlar19
  • Rep puanı 0
super
Şuan Online!
Şuan Online!
BroserBros Kurucu Admin
*******
Admin

12.03.2021 Yönetici Notu:

Kırık linkler kontrol edildi, kaldırıldı ve yenilendi. Tüm linkler tamamen çalışır durumda.
Şuan Offine!
Şuan Offine!
cictatanga Uzman Üye
**
Uzman Üye

  • Konular0
  • Mesajlar17
  • Rep puanı 0
site çok iyi
Şuan Offine!
Şuan Offine!
zinqedit Uzman Üye
**
Uzman Üye

  • Konular0
  • Mesajlar21
  • Rep puanı 0
harika


Hızlı Menü: