⤤ Premium'a Yükselt
Filmbol Forum Film İndir BRRip XviD v Küçük Cadı (Die kleine Hexe - The Little Witch) - 2018 - TR - BRRip XviD | tt6153538

Filmbol TV kullanıma açıldı. Bu adresten giriş yapabilirsin: Giriş





Küçük Cadı (Die kleine Hexe - The Little Witch) - 2018 - TR - BRRip XviD | tt6153538
BroserBros
Küçük Cadı (Die kleine Hexe - The Little Witch) - 2018 - TR - BRRip XviD | tt6153538
1
463
  • Derecelendirme: 0/5 - 0 oy
  • 1
  • 2
  • 3
  • 4
  • 5
Konuyu Okuyanlar:2 Ziyaretçi
Şuan Online!
Filmin Yayınlanma Tarihi: 2018 
WWW
Rapor Et!
Şuan Online!
BroserBros Kurucu Admin
*******
Admin



 Küçük Cadı



Die kleine Hexe, küçük bir cadıdır. Onun yeteneklerini iyi kullanabilen müthiş bir cadı olması için fedakarlık yapması gerekir. Küçük cadının en büyük isteği büyük festivalde dans edebilmektir. Ancak gelecek sene gerçekleşecek olan festivale girebilmesi için sınava girmesi ve kitapta yer alan bütün büyüler üzerinde ustalaşması gerekir. Küçük cadı hiç vakit kaybetmeden çalışmalara başlar. Ama kötü kalpli cadı Rumpumpel küçük cadının hedefine ulaşmasını engellemek için her türlü yolu dener. Küçük cadı kitaptaki tüm büyüleri ezberleyip hayalini kurduğu festivale katılmaya başarabilecek midir?

Küçük Cadı (2018) (Die kleine Hexe - The Little Witch) | tt6153538 Filmi Imdb'den 1,500 kişi tarafından oylandı ve 6,2 puan aldı. Bu film için editör puanı %67 olarak belirlendi. İyi Seyirler!

Teknik Detaylar

Kod :
General
Unique ID                                : 83982857783633545343749077426460023266 (0x3F2E82936D8BCDDF6A8E30808405D9E2)
Complete name                            : /home/BroserBros/Desktop/8/Küçük.Cadı.2018.BRRip.XviD.TR.Filmbol.avi
Format                                   : Matroska
Format version                           : Version 4
File size                                : 1.02 GiB
Duration                                 : 1 h 43 min
Overall bit rate                         : 1 413 kb/s
Movie name                               : Küçük Cadı - The Little Witch - Die kleine Hexe - 2018 | Filmbol.org
Encoded date                             : UTC 2021-06-11 11:19:20
Writing application                      : mkvmerge v53.0.0 ('Fool's Gold') 64-bit
Writing library                          : libebml v1.4.1 + libmatroska v1.6.2
FileExtension_Invalid                    : mkv mk3d mka mks

Video
ID                                       : 1
Format                                   : AVC
Format/Info                              : Advanced Video Codec
Format profile                           : [email protected]
Format settings                          : CABAC / 1 Ref Frames
Format settings, CABAC                   : Yes
Format settings, Reference frames        : 1 frame
Codec ID                                 : V_MPEG4/ISO/AVC
Duration                                 : 1 h 43 min
Bit rate                                 : 1 283 kb/s
Width                                    : 720 pixels
Height                                   : 308 pixels
Display aspect ratio                     : 2.35:1
Frame rate mode                          : Constant
Frame rate                               : 24.000 FPS
Color space                              : YUV
Chroma subsampling                       : 4:2:0
Bit depth                                : 8 bits
Scan type                                : Progressive
Bits/(Pixel*Frame)                       : 0.241
Stream size                              : 946 MiB (91%)
Title                                    : Küçük Cadı - The Little Witch - Die kleine Hexe - 2018 | Filmbol.org
Writing library                          : x264 core 142
Encoding settings                        : cabac=1 / ref=1 / deblock=1:0:0 / analyse=0x1:0x111 / me=umh / subme=6 / psy=0 / mixed_ref=0 / me_range=12 / chroma_me=1 / trellis=0 / 8x8dct=0 / cqm=0 / deadzone=21,11 / fast_pskip=1 / chroma_qp_offset=0 / threads=16 / lookahead_threads=2 / sliced_threads=0 / nr=0 / decimate=1 / interlaced=0 / bluray_compat=0 / constrained_intra=0 / bframes=0 / weightp=0 / keyint=24 / keyint_min=13 / scenecut=40 / intra_refresh=0 / rc=2pass / mbtree=0 / bitrate=1283 / ratetol=1.0 / qcomp=0.60 / qpmin=0 / qpmax=69 / qpstep=4 / cplxblur=20.0 / qblur=0.5 / ip_ratio=1.40 / aq=1:1.00
Default                                  : Yes
Forced                                   : No
Color range                              : Limited
Color primaries                          : BT.601 NTSC
Transfer characteristics                 : BT.709
Matrix coefficients                      : BT.601

Audio
ID                                       : 2
Format                                   : MPEG Audio
Format version                           : Version 1
Format profile                           : Layer 3
Format settings                          : Joint stereo / MS Stereo
Codec ID                                 : A_MPEG/L3
Codec ID/Hint                            : MP3
Duration                                 : 1 h 42 min
Bit rate mode                            : Constant
Bit rate                                 : 128 kb/s
Channel(s)                               : 2 channels
Sampling rate                            : 48.0 kHz
Frame rate                               : 41.667 FPS (1152 SPF)
Compression mode                         : Lossy
Stream size                              : 94.2 MiB (9%)
Title                                    : Küçük Cadı - The Little Witch - Die kleine Hexe - 2018 | Filmbol.org
Default                                  : Yes
Forced                                   : No

Film Detayları


 Küçük Cadı

 Küçük Cadı

 Küçük Cadı


Film Fragmanı


Film İndir


Rar Şifresi: filmbol.org



Uptobox ile indir

1Fichier ile indir

1Fichier'den İndiremiyor musun? Tıklayın!












Şuan Online!
Rapor Et!
Şuan Online!
BroserBros Kurucu Admin
*******
Admin
12.06.2021 Yönetici Notu:

Kırık linkler kontrol edildi, kaldırıldı ve yenilendi. Tüm linkler tamamen çalışır durumda.


Hızlı Menü: