⤤ Premium'a Yükselt
Filmbol Forum Film İndir BRRip XviD v John Wick 3: Parabellum (John Wick: Chapter 3 - Parabellum) - 2019 - TR - BRRip XviD | tt6146586

Filmbol TV kullanıma açıldı. Bu adresten giriş yapabilirsin: Giriş





John Wick 3: Parabellum (John Wick: Chapter 3 - Parabellum) - 2019 - TR - BRRip XviD | tt6146586
BroserBros
John Wick 3: Parabellum (John Wick: Chapter 3 - Parabellum) - 2019 - TR - BRRip XviD | tt6146586
9
1818
  • Derecelendirme: 0/5 - 0 oy
  • 1
  • 2
  • 3
  • 4
  • 5
Konuyu Okuyanlar:2 Ziyaretçi
Şuan Online!
Filmin Yayınlanma Tarihi: 2019 
WWW
Rapor Et!
Şuan Online!
BroserBros Kurucu Admin
*******
Admin



 John Wick 3: Parabellum



John Wick: Chapter 3 – Parabellum, gizli suikastçı birliğinden atılan John Wick’in, kellesi karşılığında ödül almak için peşine düşen suikastçılara karşı verdiği mücadeleyi konu ediyor. John Wick iki nedenden ötürü firaridir. Kellesi üzerine 14 milyon dolarlık açık sözleşme konulmuştur ve temel bir kuralı ihlal etmiştir; Continental Hotel’de birini öldürmüştür. Kurbanı ise açık kontratı sunan Yüksek Masa üyesidir. İşi bitmiş olması gereken John’a otelin yöneticisi Winston tarafından bir saatlik bir kaçış süresi verilir. Ardından üyeliği iptal edilecek, tüm hizmetlerden men edilecek ve diğer üyelerle iletişimi kesilecektir. John’un New York City’den kaçma mücadelesinde güvenebileceği tek şey servis endüstrisidir…

John Wick 3: Parabellum (2019) (John Wick: Chapter 3 - Parabellum) | tt6146586 Filmi Imdb'den 290,000 kişi tarafından oylandı ve 7,4 puan aldı. Bu film için editör puanı %79 olarak belirlendi. İyi Seyirler!

Teknik Detaylar

Kod :
General
Unique ID                                : 311727767876655360004154549698629296061 (0xEA849592652FCDC9F72606460C815FBD)
Complete name                            : /home/BroserBros/Desktop/2/John.Wick.3.Parabellum.2019.BRRip.XviD.TR.Filmbol.avi
Format                                   : Matroska
Format version                           : Version 4
File size                                : 1.94 GiB
Duration                                 : 2 h 10 min
Overall bit rate                         : 2 129 kb/s
Movie name                               : John Wick 3 - John Wick 3: Parabellum - 2019 | Filmbol.org
Encoded date                             : UTC 2021-04-01 09:10:59
Writing application                      : mkvmerge v53.0.0 ('Fool's Gold') 64-bit
Writing library                          : libebml v1.4.1 + libmatroska v1.6.2
FileExtension_Invalid                    : mkv mk3d mka mks

Video
ID                                       : 1
Format                                   : V_MS/VFW/FOURCC / xvid
Codec ID                                 : V_MS/VFW/FOURCC / xvid
Duration                                 : 2 h 10 min
Bit rate                                 : 1 999 kb/s
Width                                    : 720 pixels
Height                                   : 300 pixels
Display aspect ratio                     : 2.40:1
Frame rate mode                          : Constant
Frame rate                               : 23.976 FPS
Bits/(Pixel*Frame)                       : 0.386
Stream size                              : 1.83 GiB (94%)
Title                                    : John Wick 3 - John Wick 3: Parabellum - 2019 | Filmbol.org
Default                                  : Yes
Forced                                   : No

Audio
ID                                       : 2
Format                                   : AC-3
Format/Info                              : Audio Coding 3
Commercial name                          : Dolby Digital
Codec ID                                 : A_AC3
Duration                                 : 2 h 10 min
Bit rate mode                            : Constant
Bit rate                                 : 128 kb/s
Channel(s)                               : 2 channels
Channel layout                           : L R
Sampling rate                            : 48.0 kHz
Frame rate                               : 31.250 FPS (1536 SPF)
Compression mode                         : Lossy
Stream size                              : 120 MiB (6%)
Title                                    : John Wick 3 - John Wick 3: Parabellum - 2019 | Filmbol.org
Service kind                             : Complete Main
Default                                  : Yes
Forced                                   : No

Film Detayları


 John Wick 3: Parabellum

 John Wick 3: Parabellum

 John Wick 3: Parabellum


Film Fragmanı


Film İndir


Rar Şifresi: filmbol.org



Uptobox ile indir

1Fichier ile indir

1Fichier'den İndiremiyor musun? Tıklayın!












Şuan Offine!
Rapor Et!
Şuan Offine!
sectechno Premium Üye
****
  • Konular19
  • Mesajlar204
  • Rep puanı 47
Teşekkürler Admin.Eline,emeğine sağlık,
kolay gelsin.İyi çalışmalar.
Şuan Offine!
Rapor Et!
Şuan Offine!
simurg26 Uzman Üye
**
Uzman Üye
  • Konular0
  • Mesajlar8
  • Rep puanı 0
teşekkürler
Şuan Offine!
Rapor Et!
Şuan Offine!
tayyib5731 Uzman Üye
**
Uzman Üye
  • Konular1
  • Mesajlar45
  • Rep puanı 0
güzel film
Şuan Offine!
Rapor Et!
Şuan Offine!
refresh23 Üye
*
Üye
  • Konular0
  • Mesajlar5
  • Rep puanı 0
hoş Big Grin
Şuan Offine!
Rapor Et!
Şuan Offine!
Moononly Üye
*
Üye
  • Konular0
  • Mesajlar1
  • Rep puanı 0
Teşekkür ler
Şuan Offine!
Rapor Et!
Şuan Offine!
ismahilo Uzman Üye
**
Uzman Üye
  • Konular0
  • Mesajlar15
  • Rep puanı 0
teşekkürler
Şuan Online!
Rapor Et!
Şuan Online!
BroserBros Kurucu Admin
*******
Admin
03.04.2021 Yönetici Notu:

Kırık linkler kontrol edildi, kaldırıldı ve yenilendi. Tüm linkler tamamen çalışır durumda.
Şuan Offine!
Rapor Et!
Şuan Offine!
Furkan61 Cezalı Üye
  • Konular0
  • Mesajlar288
teşekkürler
Rapor Et!
Aslan Ziyaretçi
     
Teşekkürler.


Hızlı Menü: