Filmbol Forum Film İndir 1080P v İlk Yenilmez: Kaptan Amerika (Captain America: The First Avenger) - 2011 - TR+ORG - 1080P | tt0458339
Mega linklerinin şikayet edilmemesi için global erişime kapatıp sadece yorum yapanlara açıyoruz. Bu linkleri gizleme işlemini mecburen yapıyoruz ve yorum yapmanızın siteye değil size faydası vardır. Teşekürler yazmayı çok görüp, Random/Spam mesajlar atarak Mega linklerini açmaya çalışan kullanıcılara önce süresiz ban, devam ederse IP ban atacağız.
Filmbol'da moderatör olmak ister misiniz? Bizimle iletişime geçmek için tıklayın!
İlk Yenilmez: Kaptan Amerika (Captain America: The First Avenger) - 2011 - TR+ORG - 1080P | tt0458339
BroserBros
İlk Yenilmez: Kaptan Amerika (Captain America: The First Avenger) - 2011 - TR+ORG - 1080P | tt0458339
7
3693
  • Derecelendirme: 0/5 - 0 oy
  • 1
  • 2
  • 3
  • 4
  • 5
Konuyu Okuyanlar:1 Ziyaretçi
Şuan Online!
Filmin Yayınlanma Tarihi: 2011 
WWW
Şuan Online!
BroserBros Kurucu Admin
*******
Admin



 İlk Yenilmez: Kaptan Amerika



Askeriye tarafında reddedilmiş bir asker olan Steve Rogers, dönemin abd devletinin doğaüstü güçlere sahip bir insan oluşturma hedefi doğrultusunda bu oluşuma katılıyor. Süper asker serumu uygulandıktan sonra Steve Rogers, Kaptan Amerika olacaktır. Bu onu süper adam yapacak, yaptığı işler ile’de süper kahraman olacaktır.

İlk Yenilmez: Kaptan Amerika (2011) (Captain America: The First Avenger) | tt0458339 Filmi Imdb'den 750,000 kişi tarafından oylandı ve 6,9 puan aldı. Bu film için editör puanı %84 olarak belirlendi. İyi Seyirler!

Teknik Detaylar

Kod :
General
Unique ID                                : 182685016608930440164725504768575372597 (0x896FDAB928B31DBAB190CF9BFED97D35)
Complete name                            : /home/BroserBros/Desktop/2/Kaptan.Amerika.İlk.Yenilmez.2011.1080p.BluRay.x264.TR.ENG.Filmbol.mkv
Format                                   : Matroska
Format version                           : Version 4
File size                                : 2.15 GiB
Duration                                 : 2 h 4 min
Overall bit rate                         : 2 479 kb/s
Movie name                               : Kaptan Amerika: İlk Yenilmez - Captain America - 2011 | Filmbol.org
Encoded date                             : UTC 2021-03-13 17:10:34
Writing application                      : mkvmerge v53.0.0 ('Fool's Gold') 64-bit
Writing library                          : libebml v1.4.1 + libmatroska v1.6.2

Video
ID                                       : 1
Format                                   : AVC
Format/Info                              : Advanced Video Codec
Format profile                           : [email protected]
Format settings                          : CABAC / 5 Ref Frames
Format settings, CABAC                   : Yes
Format settings, Reference frames        : 5 frames
Codec ID                                 : V_MPEG4/ISO/AVC
Duration                                 : 2 h 4 min
Bit rate                                 : 1 805 kb/s
Width                                    : 1 920 pixels
Height                                   : 816 pixels
Display aspect ratio                     : 2.35:1
Frame rate mode                          : Constant
Frame rate                               : 23.976 (24000/1001) FPS
Color space                              : YUV
Chroma subsampling                       : 4:2:0
Bit depth                                : 8 bits
Scan type                                : Progressive
Bits/(Pixel*Frame)                       : 0.048
Stream size                              : 1.57 GiB (73%)
Title                                    : 1080P - Filmbol.org
Writing library                          : x264 core 116 r2074 2641b9e
Encoding settings                        : cabac=1 / ref=5 / deblock=1:-2:-1 / analyse=0x3:0x113 / me=umh / subme=8 / psy=1 / psy_rd=1.00:0.00 / mixed_ref=1 / me_range=16 / chroma_me=1 / trellis=1 / 8x8dct=1 / cqm=0 / deadzone=21,11 / fast_pskip=1 / chroma_qp_offset=-2 / threads=9 / sliced_threads=0 / nr=0 / decimate=1 / interlaced=0 / bluray_compat=0 / constrained_intra=0 / bframes=3 / b_pyramid=2 / b_adapt=2 / b_bias=0 / direct=3 / weightb=1 / open_gop=0 / weightp=2 / keyint=250 / keyint_min=23 / scenecut=40 / intra_refresh=0 / rc_lookahead=50 / rc=2pass / mbtree=1 / bitrate=1805 / ratetol=1.0 / qcomp=0.60 / qpmin=10 / qpmax=51 / qpstep=4 / cplxblur=20.0 / qblur=0.5 / ip_ratio=1.40 / aq=1:1.00
Default                                  : Yes
Forced                                   : No

Audio #1
ID                                       : 2
Format                                   : AC-3
Format/Info                              : Audio Coding 3
Commercial name                          : Dolby Digital
Codec ID                                 : A_AC3
Duration                                 : 2 h 4 min
Bit rate mode                            : Constant
Bit rate                                 : 640 kb/s
Channel(s)                               : 6 channels
Channel layout                           : L R C LFE Ls Rs
Sampling rate                            : 48.0 kHz
Frame rate                               : 31.250 FPS (1536 SPF)
Compression mode                         : Lossy
Stream size                              : 569 MiB (26%)
Title                                    : Türkçe - Filmbol.org
Language                                 : Turkish
Service kind                             : Complete Main
Default                                  : Yes
Forced                                   : Yes

Audio #2
ID                                       : 3
Format                                   : AAC LC SBR
Format/Info                              : Advanced Audio Codec Low Complexity with Spectral Band Replication
Commercial name                          : HE-AAC
Format settings                          : Explicit
Codec ID                                 : A_AAC-2
Duration                                 : 2 h 4 min
Bit rate                                 : 32.0 kb/s
Channel(s)                               : 2 channels
Channel layout                           : L R
Sampling rate                            : 48.0 kHz
Frame rate                               : 23.438 FPS (2048 SPF)
Compression mode                         : Lossy
Stream size                              : 28.4 MiB (1%)
Title                                    : Orjinal Dil - Filmbol.org
Language                                 : English
Default                                  : No
Forced                                   : No

Text
ID                                       : 4
Format                                   : UTF-8
Codec ID                                 : S_TEXT/UTF8
Codec ID/Info                            : UTF-8 Plain Text
Duration                                 : 2 h 3 min
Bit rate                                 : 47 b/s
Count of elements                        : 1347
Stream size                              : 42.9 KiB (0%)
Title                                    : Türkçe - Filmbol.org
Language                                 : Turkish
Default                                  : No
Forced                                   : No

Film Detayları


 İlk Yenilmez: Kaptan Amerika

 İlk Yenilmez: Kaptan Amerika

 İlk Yenilmez: Kaptan Amerika


Film Fragmanı


Film Detayları

Uptobox ile indir

1Fichier ile indir

1Fichier'den İndiremiyor musun? Tıklayın!


Mega linki şuan da gizli. Kullanıma açmak için konuya yorum yapın ve ardından sayfayı yenileyin.

Mega


Bunun için üzgünüz ancak, bu linke sadece premium üyeler erişebilir.

Filmbol Cloud





Şuan Online!
Şuan Online!
BroserBros Kurucu Admin
*******
Admin

10.12.2019 Güncelleme Notu:

Linkler yenilendi. Kırık linkler kaldırıldı ve Genel Konu Düzenlemesi Yapıldı
Şuan Offine!
Şuan Offine!
umtay56 Yeni Üye
*
Üye

  • Konular0
  • Mesajlar1
  • Rep puanı 0
Efsanesiniz  Heart
Şuan Offine!
Şuan Offine!
Omeryuksel256 Uzman Üye
**
Uzman Üye

  • Konular0
  • Mesajlar14
  • Rep puanı 0
kaptan amerika
Şuan Offine!
Şuan Offine!
gezgin2050 Yeni Üye
*
Üye

  • Konular0
  • Mesajlar5
  • Rep puanı 0
linkleri yenileyebilirmisiniz.
Şuan Online!
Şuan Online!
TheSteeL Süper Moderatör
*****
Süper Moderatör

Merhaba Bütün Filmlerin Linklerini Sırasıyla Yeniliyoruz Şimdilik Mega Linkinden İndirebilirsiniz.
Şuan Offine!
Şuan Offine!
cictatanga Uzman Üye
**
Uzman Üye

  • Konular0
  • Mesajlar17
  • Rep puanı 0
site çok iyi
Şuan Online!
Şuan Online!
BroserBros Kurucu Admin
*******
Admin

15.03.2021 Yönetici Notu:

Kırık linkler kontrol edildi, kaldırıldı ve yenilendi. Tüm linkler tamamen çalışır durumda. @gezgin2050


Konu ile Alakalı Benzer Konular
Konular Yazar Yorumlar Okunma Son Yorum
Filmin Yayınlanma Tarihi: 2011
Transformers: Ay'ın Karanlık Yüzü (Transformers: Dark of the Moon) - 2011 - TR+ORG - 1080P | tt1399103 TheSteeL 0 7 , Saat: 02:31
Son Yorum: TheSteeL
Filmin Yayınlanma Tarihi: 2021
Her Şey Yok Olur (Things Heard & Seen) - 2021 - TR+ORG - 1080P | tt10962368 TheSteeL 0 6 , Saat: 02:11
Son Yorum: TheSteeL
Filmin Yayınlanma Tarihi: 2018
Örümcek-Adam: Örümcek Evreninde (Spider-Man: Into the Spider-Verse) - 2018 - TR+ORG - 1080P | tt4633694 BroserBros 40 3,572 , Saat: 20:57
Son Yorum: DF FD
Filmin Yayınlanma Tarihi: 2015
Yıldız Savaşları 7: Güç Uyanıyor (Star Wars: Episode VII - The Force Awakens) - 2015 - TR+ORG - 1080P | tt2488496 BroserBros 24 4,559 , Saat: 18:00
Son Yorum: BroserBros
Filmin Yayınlanma Tarihi: 1983
Yıldız Savaşları 6: Jedi'ın Dönüşü (Star Wars: Episode VI - Return of the Jedi) - 1983 - TR+ORG - 1080P | tt0086190 BroserBros 24 3,407 , Saat: 17:48
Son Yorum: BroserBros

Hızlı Menü: