Filmbol Forum Film İndir BRRip XviD v Cehennem Gecesi (Burn) Türkçe Dublaj Brrip Xvid İndir
Mega linklerinin şikayet edilmemesi için global erişime kapatıp sadece yorum yapanlara açıyoruz. Bu linkleri gizleme işlemini mecburen yapıyoruz ve yorum yapmanızın siteye değil size faydası vardır. Teşekürler yazmayı çok görüp, Random/Spam mesajlar atarak Mega linklerini açmaya çalışan kullanıcılara önce süresiz ban, devam ederse IP ban atacağız.
Filmbol'da moderatör olmak ister misiniz? Bizimle iletişime geçmek için tıklayın!
Cehennem Gecesi (Burn) Türkçe Dublaj Brrip Xvid İndir
BroserBros
Cehennem Gecesi (Burn) Türkçe Dublaj Brrip Xvid İndir
0
293
  • Derecelendirme: 0/5 - 0 oy
  • 1
  • 2
  • 3
  • 4
  • 5
Konuyu Okuyanlar:1 Ziyaretçi
Şuan Online!
Filmin Yayınlanma Tarihi: 2019 
WWW
Şuan Online!
BroserBros Kurucu Admin
*******
Admin










Cehennem Gecesi (Burn)



Teknik Detaylar


Kod :
General
Complete name                            : Cehennem.Gecesi.2019.BRRip.XviD.TR.Filmbol.avi
Format                                   : AVI
Format/Info                              : Audio Video Interleave
File size                                : 1.03 GiB
Duration                                 : 1h 28mn
Overall bit rate                         : 1 665 Kbps

Video
ID                                       : 0
Format                                   : MPEG-4 Visual
Format profile                           : [email protected]L5
Format settings, BVOP                    : No
Format settings, QPel                    : No
Format settings, GMC                     : No warppoints
Format settings, Matrix                  : Default (H.263)
Codec ID                                 : XVID
Codec ID/Hint                            : XviD
Duration                                 : 1h 28mn
Bit rate                                 : 1 524 Kbps
Width                                    : 720 pixels
Height                                   : 388 pixels
Display aspect ratio                     : 1.85:1
Frame rate                               : 23.976 fps
Color space                              : YUV
Chroma subsampling                       : 4:2:0
Bit depth                                : 8 bits
Scan type                                : Progressive
Compression mode                         : Lossy
Bits/(Pixel*Frame)                       : 0.228
Stream size                              : 963 MiB (92%)
Writing library                          : Lavc58.35.100

Audio
ID                                       : 1
Format                                   : MPEG Audio
Format version                           : Version 1
Format profile                           : Layer 3
Mode                                     : Joint stereo
Codec ID                                 : 55
Codec ID/Hint                            : MP3
Duration                                 : 1h 28mn
Bit rate mode                            : Constant
Bit rate                                 : 128 Kbps
Channel(s)                               : 2 channels
Sampling rate                            : 48.0 KHz
Compression mode                         : Lossy
Stream size                              : 80.9 MiB (8%)
Alignment                                : Aligned on interleaves
Interleave, duration                     : 24 ms (0.58 video frame)

Film Detayları


Cehennem Gecesi (Burn)

Cehennem Gecesi (Burn)

Cehennem Gecesi (Burn)


Film Fragmanı


Film Detayları

Brrip İndir



Uptobox ile indir

1Fichier ile indir

1Fichier'den İndiremiyor musun? Tıklayın!


Mega linki şuan da gizli. Kullanıma açmak için konuya yorum yapın ve ardından sayfayı yenileyin.

Mega


MediaFire ile indir



Konu ile Alakalı Benzer Konular
Konular Yazar Yorumlar Okunma Son Yorum
Filmin Yayınlanma Tarihi: 2021
Yıldırım Gücü (Thunder Force) - 2021 - TR - BRRip XviD | tt10121392 TheSteeL 0 7 7 saat önce
Son Yorum: TheSteeL
Filmin Yayınlanma Tarihi: 2019
47 Metre Derinde: Kafes (47 Meters Down: Uncaged) - 2019 - TR - BRRip XviD BroserBros 2 99 9 saat önce
Son Yorum: ömerk
Filmin Yayınlanma Tarihi: 2020
Kadaver (Cadaver) - 2020 - TR - BRRip XviD BroserBros 1 78 9 saat önce
Son Yorum: ömerk
Filmin Yayınlanma Tarihi: 2006
Arabalar (Cars) - 2006 - TR - BRRip XviD BroserBros 4 352 , Saat: 02:36
Son Yorum: paboo
Filmin Yayınlanma Tarihi: 2020
Dipte (Breaking Surface) - 2020 - TR - BRRip XviD | tt10081762 TheSteeL 3 68 , Saat: 02:15
Son Yorum: TheSteeL

Hızlı Menü: