Filmbol Forum Film İndir BRRip XviD v Örümcek-Adam: Eve Dönüş (Spider-Man: Homecoming) - 2017 - TR - BRRip XviD | tt2250912
Mega linklerinin şikayet edilmemesi için global erişime kapatıp sadece yorum yapanlara açıyoruz. Bu linkleri gizleme işlemini mecburen yapıyoruz ve yorum yapmanızın siteye değil size faydası vardır. Teşekürler yazmayı çok görüp, Random/Spam mesajlar atarak Mega linklerini açmaya çalışan kullanıcılara önce süresiz ban, devam ederse IP ban atacağız.
Filmbol'da moderatör olmak ister misiniz? Bizimle iletişime geçmek için tıklayın!
Örümcek-Adam: Eve Dönüş (Spider-Man: Homecoming) - 2017 - TR - BRRip XviD | tt2250912
BroserBros
Örümcek-Adam: Eve Dönüş (Spider-Man: Homecoming) - 2017 - TR - BRRip XviD | tt2250912
3
861
  • Derecelendirme: 0/5 - 0 oy
  • 1
  • 2
  • 3
  • 4
  • 5
Konuyu Okuyanlar:1 Ziyaretçi
Şuan Online!
Filmin Yayınlanma Tarihi: 2017 
WWW
Şuan Online!
BroserBros Kurucu Admin
*******
Admin



 Örümcek-Adam: Eve Dönüş



Yenilmezler ile yaşadığı maceranın büyüsüne kapılan genç Peter kendini kanıtlama isteğiyle dolup taşan bir gençtir. Ancak yaşı gereği birçok farklı sorumluluğu vardır. May halası ile yaşayan genç Peter bir yandan da ona göz kulak olan Demir Adam ile arkadaşlığını ilerletmiştir. Okul hayatına alışmaya ve sıradan bir genç gibi yaşamaya çalışan Peter’ın aklında ise suçla savaşmak ve dünyayı daha güvenli bir hale getirmek vardır. Vulture yepyeni bir düşmanı yaşadığı şehre gönderdiğinde ise Peter’ın kendini gösterme fırsatı çıkacak, ancak en değerli gördüğü herkes tehdit altında olacaktır…

Örümcek-Adam: Eve Dönüş (2017) (Spider-Man: Homecoming) | tt2250912 Filmi Imdb'den 530,000 kişi tarafından oylandı ve 7,4 puan aldı. Bu film için editör puanı %79 olarak belirlendi. İyi Seyirler!

Teknik Detaylar

Kod :
General
Unique ID                                : 170317924699446188469893092384601045908 (0x80220A040F7057126F767D08DD747B94)
Complete name                            : /home/BroserBros/Desktop/8/Örümcek.Adam.Eve.Dönüş.2017.BRRip.XViD.TR.Filmbol.avi
Format                                   : Matroska
Format version                           : Version 4
File size                                : 1.27 GiB
Duration                                 : 2 h 13 min
Overall bit rate                         : 1 364 kb/s
Movie name                               : Örümcek-Adam: Eve Dönüş - Spider-Man: Homecoming - 2017 | Filmbol.org
Encoded date                             : UTC 2021-03-26 14:18:14
Writing application                      : mkvmerge v53.0.0 ('Fool's Gold') 64-bit
Writing library                          : libebml v1.4.1 + libmatroska v1.6.2
FileExtension_Invalid                    : mkv mk3d mka mks

Video
ID                                       : 1
Format                                   : MPEG-4 Visual
Format profile                           : Advanced [email protected]
Format settings                          : BVOP2
Format settings, BVOP                    : 2
Format settings, QPel                    : No
Format settings, GMC                     : No warppoints
Format settings, Matrix                  : Default (H.263)
Muxing mode                              : Packed bitstream
Codec ID                                 : V_MS/VFW/FOURCC / XVID
Codec ID/Hint                            : XviD
Duration                                 : 2 h 13 min
Bit rate                                 : 1 234 kb/s
Width                                    : 720 pixels
Height                                   : 304 pixels
Display aspect ratio                     : 2.35:1
Frame rate mode                          : Constant
Frame rate                               : 23.976 (23976/1000) FPS
Color space                              : YUV
Chroma subsampling                       : 4:2:0
Bit depth                                : 8 bits
Scan type                                : Progressive
Compression mode                         : Lossy
Bits/(Pixel*Frame)                       : 0.235
Stream size                              : 1.15 GiB (90%)
Title                                    : Örümcek-Adam: Eve Dönüş - Spider-Man: Homecoming - 2017 | Filmbol.org
Writing library                          : XviD 66
Default                                  : Yes
Forced                                   : No

Audio
ID                                       : 2
Format                                   : MPEG Audio
Format version                           : Version 1
Format profile                           : Layer 3
Format settings                          : Joint stereo
Codec ID                                 : A_MPEG/L3
Codec ID/Hint                            : MP3
Duration                                 : 2 h 13 min
Bit rate mode                            : Constant
Bit rate                                 : 128 kb/s
Channel(s)                               : 2 channels
Sampling rate                            : 48.0 kHz
Frame rate                               : 41.667 FPS (1152 SPF)
Compression mode                         : Lossy
Stream size                              : 122 MiB (9%)
Title                                    : Örümcek-Adam: Eve Dönüş - Spider-Man: Homecoming - 2017 | Filmbol.org
Default                                  : Yes
Forced                                   : No

Film Detayları


 Örümcek-Adam: Eve Dönüş

 Örümcek-Adam: Eve Dönüş

 Örümcek-Adam: Eve Dönüş


Film Fragmanı


Film Detayları


Uptobox ile indir

1Fichier ile indir

1Fichier'den İndiremiyor musun? Tıklayın!


Mega linki şuan da gizli. Kullanıma açmak için konuya yorum yapın ve ardından sayfayı yenileyin.

Mega


Bunun için üzgünüz ancak, bu linke sadece premium üyeler erişebilir.

Filmbol Cloud





Şuan Offine!
Şuan Offine!
sectechno Premium Üye
****

  • Konular11
  • Mesajlar108
  • Rep puanı 20
Teşekkürler Admin.Emeğine sağlık,
kolay gelsin.İyi çalışmalar.
Şuan Offine!
Şuan Offine!
trend123 Yeni Üye
*
Üye

  • Konular0
  • Mesajlar5
  • Rep puanı 0
Fılm i izlemedim ama baya merak ediyorum  Heart
Şuan Online!
Şuan Online!
BroserBros Kurucu Admin
*******
Admin

28.03.2021 Yönetici Notu:

Kırık linkler kontrol edildi, kaldırıldı ve yenilendi. Tüm linkler tamamen çalışır durumda.


Konu ile Alakalı Benzer Konular
Konular Yazar Yorumlar Okunma Son Yorum
Filmin Yayınlanma Tarihi: 2021
Donma Noktası (Below Zero) - 2021 - TR - BRRip XviD TheSteeL 4 92 , Saat: 01:39
Son Yorum: TheSteeL
Filmin Yayınlanma Tarihi: 2015
Yeni Ahit (Le tout nouveau testament) - 2015 - TR - BRRip XviD | tt3792960 TheSteeL 0 10 , Saat: 23:51
Son Yorum: TheSteeL
Filmin Yayınlanma Tarihi: 2015
Diriliş (The Revenant) - 2015 - TR - BRRip XviD | tt1663202 BroserBros 4 3,533 , Saat: 19:42
Son Yorum: BroserBros
Filmin Yayınlanma Tarihi: 2018
Adalet 2 (The Equalizer 2) - 2018 - TR - BRRip XviD | tt3766354 BroserBros 4 934 , Saat: 19:30
Son Yorum: BroserBros
Filmin Yayınlanma Tarihi: 2019
Aslan Kral (The Lion King) - 2019 - TR - BRRip XviD | tt6105098 BroserBros 10 2,196 , Saat: 19:18
Son Yorum: BroserBros

Hızlı Menü: