Filmbol Forum Film İndir BRRip XviD v Yenilmezler (The Avengers) - 2012 - TR - BRRip XviD | tt0848228
Mega linklerinin şikayet edilmemesi için global erişime kapatıp sadece yorum yapanlara açıyoruz. Bu linkleri gizleme işlemini mecburen yapıyoruz ve yorum yapmanızın siteye değil size faydası vardır. Teşekürler yazmayı çok görüp, Random/Spam mesajlar atarak Mega linklerini açmaya çalışan kullanıcılara önce süresiz ban, devam ederse IP ban atacağız.
Filmbol'da moderatör olmak ister misiniz? Bizimle iletişime geçmek için tıklayın!
Yenilmezler (The Avengers) - 2012 - TR - BRRip XviD | tt0848228
BroserBros
Yenilmezler (The Avengers) - 2012 - TR - BRRip XviD | tt0848228
11
4227
  • Derecelendirme: 0/5 - 0 oy
  • 1
  • 2
  • 3
  • 4
  • 5
Konuyu Okuyanlar:1 Ziyaretçi
Şuan Online!
Filmin Yayınlanma Tarihi: 2012 
WWW
Şuan Online!
BroserBros Kurucu Admin
*******
Admin



 Yenilmezler



Dünyanın tüm süper kahramanları, yaramaz Loki’ye ve onun yaramaz ordusuna karşı birlikte olmalıdır. Ancak ondan önce, birlik olmayı öğrenmelidirler.

Yenilmezler (2012) (The Avengers) | tt0848228 Filmi Imdb'den 1,300,000 kişi tarafından oylandı ve 8,0 puan aldı. Bu film için editör puanı %94 olarak belirlendi. İyi Seyirler!

Teknik Detaylar

Kod :
General
Unique ID                                : 227731619210677993493432720168638659560 (0xAB5383B4729D77AB6EE1A1B91E0EBBE8)
Complete name                            : /home/BroserBros/Desktop/1/Yenilmezler.2012.BRRip.XviD.TR.Filmbol.avi
Format                                   : Matroska
Format version                           : Version 4
File size                                : 1.36 GiB
Duration                                 : 2 h 22 min
Overall bit rate                         : 1 361 kb/s
Movie name                               : Yenilmezler - The Avengers - 2012 | Filmbol.org
Encoded date                             : UTC 2021-04-21 17:08:04
Writing application                      : mkvmerge v53.0.0 ('Fool's Gold') 64-bit
Writing library                          : libebml v1.4.1 + libmatroska v1.6.2
FileExtension_Invalid                    : mkv mk3d mka mks

Video
ID                                       : 1
Format                                   : MPEG-4 Visual
Format profile                           : Advanced [email protected]
Format settings                          : BVOP2
Format settings, BVOP                    : 2
Format settings, QPel                    : No
Format settings, GMC                     : No warppoints
Format settings, Matrix                  : Default (H.263)
Codec ID                                 : V_MS/VFW/FOURCC / XVID
Codec ID/Hint                            : XviD
Duration                                 : 2 h 22 min
Bit rate                                 : 1 231 kb/s
Width                                    : 640 pixels
Height                                   : 352 pixels
Display aspect ratio                     : 16:9
Frame rate mode                          : Constant
Frame rate                               : 23.976 (24000/1001) FPS
Color space                              : YUV
Chroma subsampling                       : 4:2:0
Bit depth                                : 8 bits
Scan type                                : Progressive
Compression mode                         : Lossy
Bits/(Pixel*Frame)                       : 0.228
Stream size                              : 1.23 GiB (90%)
Title                                    : Yenilmezler - The Avengers - 2012 | Filmbol.org
Writing library                          : XviD 1.2.1 (UTC 2008-12-04)
Default                                  : Yes
Forced                                   : No

Audio
ID                                       : 2
Format                                   : MPEG Audio
Format version                           : Version 1
Format profile                           : Layer 3
Format settings                          : Joint stereo / MS Stereo
Codec ID                                 : A_MPEG/L3
Codec ID/Hint                            : MP3
Duration                                 : 2 h 22 min
Bit rate mode                            : Constant
Bit rate                                 : 128 kb/s
Channel(s)                               : 2 channels
Sampling rate                            : 48.0 kHz
Frame rate                               : 41.667 FPS (1152 SPF)
Compression mode                         : Lossy
Stream size                              : 131 MiB (9%)
Title                                    : Yenilmezler - The Avengers - 2012 | Filmbol.org
Writing library                          : LAME3.99r
Encoding settings                        : -m j -V 4 -q 2 -lowpass 17 -b 128
Default                                  : Yes
Forced                                   : No

Film Detayları


 Yenilmezler

 Yenilmezler

 Yenilmezler


Film Fragmanı


Film Detayları


Uptobox ile indir

1Fichier ile indir

1Fichier'den İndiremiyor musun? Tıklayın!


Mega linki şuan da gizli. Kullanıma açmak için konuya yorum yapın ve ardından sayfayı yenileyin.

Mega


Bunun için üzgünüz ancak, bu linke sadece premium üyeler erişebilir.

Filmbol Cloud





Şuan Offine!
Şuan Offine!
cemsav97 Süper Üye
***
Super Üye

  • Konular0
  • Mesajlar67
  • Rep puanı 2
Teşekkürler
Şuan Offine!
Şuan Offine!
kexal Uzman Üye
**
Uzman Üye

  • Konular0
  • Mesajlar15
  • Rep puanı 0
For mega...
Şuan Online!
Şuan Online!
BroserBros Kurucu Admin
*******
Admin

10.12.2019 Güncelleme Notu:

Linkler yenilendi. Kırık linkler kaldırıldı ve Genel Konu Düzenlemesi Yapıldı
Şuan Offine!
Şuan Offine!
Ap0calypse Süper Üye
***
Super Üye

  • Konular0
  • Mesajlar39
  • Rep puanı 0
eline sağlık
Şuan Offine!
Şuan Offine!
sectechno Premium Üye
****

  • Konular11
  • Mesajlar108
  • Rep puanı 20
Teşekkürler BroserBros.Yalnız film BRRip.XviD.TR (avi) uzantılı değil,(MKV) uzantılı video dosyası olduğu için Sony Bravia Tv video oynatıcısında video desteklenmiyor diyor.
İlgilenirsen sevinirim.İyi çalışmalar.
Şuan Online!
Şuan Online!
BroserBros Kurucu Admin
*******
Admin

Bildirim için teşekkürler @sectechno.  Video formatı avi olarak değiştirildi ve kırık linkler yenilendi.
Şuan Offine!
Şuan Offine!
[email protected] Uzman Üye
**
Uzman Üye

  • Konular0
  • Mesajlar9
  • Rep puanı 1
teşekkürler
Şuan Online!
Şuan Online!
Furkan61 Süper Üye
***
Super Üye

  • Konular0
  • Mesajlar220
  • Rep puanı 1
güzel
Şuan Offine!
Şuan Offine!
sectechno Premium Üye
****

  • Konular11
  • Mesajlar108
  • Rep puanı 20
Teşekkürler.İyi çalışmalar dileklerimle.


Konu ile Alakalı Benzer Konular
Konular Yazar Yorumlar Okunma Son Yorum
Filmin Yayınlanma Tarihi: 2018
Han Solo: Bir Star Wars Hikâyesi (Solo: A Star Wars Story) - 2018 - TR - BRRip XviD | tt3778644 BroserBros 2 438 2 saat önce
Son Yorum: Furkan61
Filmin Yayınlanma Tarihi: 2015
Yıldız Savaşları 7: Güç Uyanıyor (Star Wars: Episode VII - The Force Awakens) - 2015 - TR - BRRip XviD | tt2488496 BroserBros 8 2,184 2 saat önce
Son Yorum: Furkan61
Filmin Yayınlanma Tarihi: 1983
Yıldız Savaşları 6: Jedi'ın Dönüşü (Star Wars: Episode VI - Return of the Jedi) - 1983 - TR - BRRip XviD | tt0086190 BroserBros 8 1,785 2 saat önce
Son Yorum: Furkan61
Filmin Yayınlanma Tarihi: 1980
Yıldız Savaşları 5: İmparator (Star Wars: Episode V - The Empire Strikes Back) - 1980 - TR - BRRip XviD | tt0080684 BroserBros 6 1,779 3 saat önce
Son Yorum: Furkan61
Filmin Yayınlanma Tarihi: 2011
Transformers: Ay'ın Karanlık Yüzü (Transformers: Dark of the Moon) - 2011 - TR - BRRip XviD | tt1399103 TheSteeL 2 15 9 saat önce
Son Yorum: TheSteeL

Hızlı Menü: