Filmbol Forum Film İndir 3D v Aslan Kral (The Lion King) - 2019 - TR+ORG - 3D | tt6105098
Mega linklerinin şikayet edilmemesi için global erişime kapatıp sadece yorum yapanlara açıyoruz. Bu linkleri gizleme işlemini mecburen yapıyoruz ve yorum yapmanızın siteye değil size faydası vardır. Teşekürler yazmayı çok görüp, Random/Spam mesajlar atarak Mega linklerini açmaya çalışan kullanıcılara önce süresiz ban, devam ederse IP ban atacağız.
Filmbol'da moderatör olmak ister misiniz? Bizimle iletişime geçmek için tıklayın!
Aslan Kral (The Lion King) - 2019 - TR+ORG - 3D | tt6105098
BroserBros
Aslan Kral (The Lion King) - 2019 - TR+ORG - 3D | tt6105098
5
1116
  • Derecelendirme: 0/5 - 0 oy
  • 1
  • 2
  • 3
  • 4
  • 5
Konuyu Okuyanlar:1 Ziyaretçi
Şuan Online!
Filmin Yayınlanma Tarihi: 2019 
WWW
Şuan Online!
BroserBros Kurucu Admin
*******
Admin



 Aslan Kral



Aslan Kral, yavru bir aslan olan Simba’nın maceralarını konu ediyor. Ormanın kralı olan babası Mufasa’ya hayran bir yavru aslan olarak mutlu bir hayat süren Simba, sinsi amcası Scar’ın planlarından habersizdir. Kral olmak için fırsat kollayan Scar, Mufasa’yı öldürdükten sonra Simba için tehlike baş gösterir. Amcasının ihaneti ve babasının kaybı ile yıkılan Simba sürgüne gider. Zamanı geldiğinde hakkı olanı almak için geri dönecek ve amcasına yaptıklarının bedelini ödetecektir…

Aslan Kral (2019) (The Lion King) | tt6105098 Filmi Imdb'den 220,000 kişi tarafından oylandı ve 6,9 puan aldı. Bu film için editör puanı %81 olarak belirlendi. İyi Seyirler!

Teknik Detaylar

Kod :
General
Unique ID                                : 274483009547425902720153777095264372108 (0xCE7F813611E64D42A96E0CC783D3058C)
Complete name                            : /home/BroserBros/Desktop/3/Aslan.Kral.2019.3D.HSBS.BluRay.x264.TR.ENG.Filmbol.mkv
Format                                   : Matroska
Format version                           : Version 4
File size                                : 2.20 GiB
Duration                                 : 1 h 58 min
Overall bit rate                         : 2 658 kb/s
Movie name                               : Aslan Kral - The Lion King - 2019 | Filmbol.org
Encoded date                             : UTC 2021-04-11 12:15:15
Writing application                      : mkvmerge v53.0.0 ('Fool's Gold') 64-bit
Writing library                          : libebml v1.4.1 + libmatroska v1.6.2

Video
ID                                       : 1
Format                                   : AVC
Format/Info                              : Advanced Video Codec
Format profile                           : [email protected]
Format settings                          : CABAC / 4 Ref Frames
Format settings, CABAC                   : Yes
Format settings, Reference frames        : 4 frames
Codec ID                                 : V_MPEG4/ISO/AVC
Duration                                 : 1 h 58 min
Bit rate                                 : 2 100 kb/s
Width                                    : 1 920 pixels
Height                                   : 1 072 pixels
Display aspect ratio                     : 16:9
Frame rate mode                          : Constant
Frame rate                               : 23.976 (24000/1001) FPS
Color space                              : YUV
Chroma subsampling                       : 4:2:0
Bit depth                                : 8 bits
Scan type                                : Progressive
Bits/(Pixel*Frame)                       : 0.043
Stream size                              : 1.73 GiB (79%)
Title                                    : 3D - Filmbol.org
Writing library                          : x264 core 158
Encoding settings                        : cabac=1 / ref=4 / deblock=1:-1:-1 / analyse=0x3:0x133 / me=umh / subme=9 / psy=1 / psy_rd=1.00:0.15 / mixed_ref=1 / me_range=24 / chroma_me=1 / trellis=2 / 8x8dct=1 / cqm=0 / deadzone=21,11 / fast_pskip=0 / chroma_qp_offset=-3 / threads=18 / lookahead_threads=1 / sliced_threads=0 / nr=0 / decimate=1 / interlaced=0 / bluray_compat=0 / constrained_intra=0 / bframes=3 / b_pyramid=2 / b_adapt=2 / b_bias=0 / direct=3 / weightb=1 / open_gop=0 / weightp=2 / keyint=250 / keyint_min=23 / scenecut=40 / intra_refresh=0 / rc_lookahead=60 / rc=2pass / mbtree=1 / bitrate=2100 / ratetol=1.0 / qcomp=0.60 / qpmin=0 / qpmax=69 / qpstep=4 / cplxblur=20.0 / qblur=0.5 / vbv_maxrate=31250 / vbv_bufsize=31250 / nal_hrd=none / filler=0 / ip_ratio=1.40 / aq=1:1.00
Default                                  : Yes
Forced                                   : No

Audio #1
ID                                       : 2
Format                                   : AC-3
Format/Info                              : Audio Coding 3
Commercial name                          : Dolby Digital
Codec ID                                 : A_AC3
Duration                                 : 1 h 58 min
Bit rate mode                            : Constant
Bit rate                                 : 384 kb/s
Channel(s)                               : 6 channels
Channel layout                           : L R C LFE Ls Rs
Sampling rate                            : 48.0 kHz
Frame rate                               : 31.250 FPS (1536 SPF)
Compression mode                         : Lossy
Delay relative to video                  : -43 ms
Stream size                              : 325 MiB (14%)
Title                                    : Türkçe - Filmbol.org
Language                                 : Turkish
Service kind                             : Complete Main
Default                                  : Yes
Forced                                   : No

Audio #2
ID                                       : 3
Format                                   : AAC LC
Format/Info                              : Advanced Audio Codec Low Complexity
Codec ID                                 : A_AAC-2
Duration                                 : 1 h 58 min
Bit rate                                 : 154 kb/s
Channel(s)                               : 2 channels
Channel layout                           : L R
Sampling rate                            : 48.0 kHz
Frame rate                               : 46.875 FPS (1024 SPF)
Compression mode                         : Lossy
Delay relative to video                  : -43 ms
Stream size                              : 130 MiB (6%)
Title                                    : Orjinal Dil - Filmbol.org
Language                                 : English
Default                                  : No
Forced                                   : No

Text #1
ID                                       : 4
Format                                   : PGS
Muxing mode                              : zlib
Codec ID                                 : S_HDMV/PGS
Codec ID/Info                            : Picture based subtitle format used on BDs/HD-DVDs
Duration                                 : 5 s 422 ms
Bit rate                                 : 20.4 kb/s
Count of elements                        : 2
Stream size                              : 13.5 KiB (0%)
Title                                    : Türkçe FORCED - Filmbol.org
Language                                 : Turkish
Default                                  : Yes
Forced                                   : Yes

Text #2
ID                                       : 5
Format                                   : PGS
Muxing mode                              : zlib
Codec ID                                 : S_HDMV/PGS
Codec ID/Info                            : Picture based subtitle format used on BDs/HD-DVDs
Duration                                 : 1 h 55 min
Bit rate                                 : 41.7 kb/s
Count of elements                        : 2708
Stream size                              : 34.6 MiB (2%)
Title                                    : Türkçe - Filmbol.org
Language                                 : Turkish
Default                                  : No
Forced                                   : No

Film Detayları


 Aslan Kral

 Aslan Kral

 Aslan Kral


Film Fragmanı


Film Detayları

Uptobox ile indir

1Fichier ile indir

1Fichier'den İndiremiyor musun? Tıklayın!


Mega linki şuan da gizli. Kullanıma açmak için konuya yorum yapın ve ardından sayfayı yenileyin.

Mega


Bunun için üzgünüz ancak, bu linke sadece premium üyeler erişebilir.

Filmbol Cloud





Şuan Offine!
Şuan Offine!
tuncay777 Uzman Üye
**
Uzman Üye

  • Konular0
  • Mesajlar6
  • Rep puanı 0
Superrr
Şuan Offine!
Şuan Offine!
Savas01 Yeni Üye
*
Üye

  • Konular0
  • Mesajlar2
  • Rep puanı 0
TR dublaj arıyordum bende
Şuan Offine!
Şuan Offine!
draydinozkan Süper Üye
***
Super Üye

  • Konular0
  • Mesajlar57
  • Rep puanı 0
Teşekkürler.
Şuan Offine!
Şuan Offine!
ozibrahim1 Yeni Üye
*
Üye

  • Konular0
  • Mesajlar1
  • Rep puanı 0
güzel
Şuan Offine!
Şuan Offine!
mussa Uzman Üye
**
Uzman Üye

  • Konular0
  • Mesajlar23
  • Rep puanı 0
selamlar harikaaaa


Konu ile Alakalı Benzer Konular
Konular Yazar Yorumlar Okunma Son Yorum
Filmin Yayınlanma Tarihi: 2019
Godzilla 2: Canavarlar Kralı (King of the Monsters) Türkçe Dublaj BLURAY m3D İndir BroserBros 14 1,701 22-03-2021, Saat: 15:23
Son Yorum: metin2002
Filmin Yayınlanma Tarihi: 2019
Captain Marvel (Kaptan Marvel) - 2019 - TR+ORG - 3D | tt4154664 BroserBros 0 32 15-03-2021, Saat: 21:13
Son Yorum: BroserBros
Filmin Yayınlanma Tarihi: 2019
Karlar Ülkesi 2 (Frozen 2) - 2019 - TR+ORG - 3D | tt4520988 BroserBros 3 742 13-03-2021, Saat: 10:04
Son Yorum: mussa
Filmin Yayınlanma Tarihi: 2017
Kral Arthur: Kılıç Efsanesi (King Arthur: Legend of the Sword) - 2017 - TR+ORG - 3D BroserBros 1 307 28-01-2021, Saat: 14:02
Son Yorum: BroserBros

Hızlı Menü: