⤤ Premium'a Yükselt
Filmbol Forum Film İndir 1080P v Aslı Gibidir - 2019 - TR+ORG - 1080P | tt9056824

Filmbol TV kullanıma açıldı. Bu adresten giriş yapabilirsin: Giriş





Aslı Gibidir - 2019 - TR+ORG - 1080P | tt9056824
BroserBros
Aslı Gibidir - 2019 - TR+ORG - 1080P | tt9056824
5
589
  • Derecelendirme: 0/5 - 0 oy
  • 1
  • 2
  • 3
  • 4
  • 5
Konuyu Okuyanlar:2 Ziyaretçi
Şuan Online!
Filmin Yayınlanma Tarihi: 2019 
WWW
Rapor Et!
Şuan Online!
BroserBros Kurucu Admin
*******
Admin



 Aslı Gibidir



Aslı Gibidir, oyuncu olmanın hayalini kuran genç bir kadının yaşadıklarını konu ediyor. Genç bir kız olan Aslı, yıllardır oyuncu olmanın hayalini kurmaktadır. Ailesine bağlı olan genç kız onların isteğini geri çevirmeyip, ilk üniversitesini onların tercihine göre belirler. Ancak hayallerinden asla vazgeçmez ve yeniden sınavlara hazırlanıp ikinci üniversite olarak, özel bir konservatuvarın oyunculuk bölümünü kazanır. Hayallerine adım adım yaklaşan Aslı’nın bu başarısı, ailesinin tepkisine neden olur. Ailesi, kızlarının oyuncu olmasını istemediği için, ona destek olmayacaklarını söyler. Ne olursa olsun konservatuvarda okumaya kararlı olan Aslı, bunun için ne yapacağını düşünürken, kendisini hiç bilmediği bir dünyanın içinde bulur. ‘Dublörler Kulübü’ne adımını atan Aslı, burada bir yandan okul için para kazanırken, bir yandan da yeteneğini sergileme imkanı bulur. Adeta ikinci yuvası olduğu ‘Dublörler Kulübü’nde hayatının macerasını yaşayan Aslı’nın yaşamı, aşk kapısını çaldığında bambaşka bir hal alır.

Aslı Gibidir (2019) | tt9056824 Filmi Imdb'den 1,000 kişi tarafından oylandı ve 4,4 puan aldı. Bu film için editör puanı %50 olarak belirlendi. İyi Seyirler!

Teknik Detaylar

Kod :
General
Unique ID                                : 103847947114153988263419082791693609424 (0x4E2063190D945190352E2001949C69D0)
Complete name                            : C:\Users\Administrator\Desktop\4\Aslı.Gibidir.2019.1080p.BluRay.x264.Yerli.Filmbol.mkv
Format                                   : Matroska
Format version                           : Version 4
File size                                : 3.34 GiB
Duration                                 : 1 h 32 min
Overall bit rate                         : 5 160 kb/s
Movie name                               : Aslı Gibidir - Yerli - 2019 | [FilmboL]
Encoded date                             : UTC 2021-09-08 14:17:53
Writing application                      : mkvmerge v61.0.0 ('So') 64-bit
Writing library                          : libebml v1.4.2 + libmatroska v1.6.4

Video
ID                                       : 1
Format                                   : AVC
Format/Info                              : Advanced Video Codec
Format profile                           : [email protected]
Format settings                          : CABAC / 4 Ref Frames
Format settings, CABAC                   : Yes
Format settings, Reference frames        : 4 frames
Codec ID                                 : V_MPEG4/ISO/AVC
Duration                                 : 1 h 32 min
Bit rate                                 : 5 000 kb/s
Width                                    : 1 920 pixels
Height                                   : 1 080 pixels
Display aspect ratio                     : 16:9
Frame rate mode                          : Variable
Frame rate                               : 23.976 FPS
Color space                              : YUV
Chroma subsampling                       : 4:2:0
Bit depth                                : 8 bits
Scan type                                : Progressive
Bits/(Pixel*Frame)                       : 0.101
Stream size                              : 3.21 GiB (96%)
Title                                    : Aslı Gibidir - Yerli - 2019 | [FilmboL]
Writing library                          : x264 core 157 r2935 545de2f
Encoding settings                        : cabac=1 / ref=1 / deblock=1:-1:-1 / analyse=0x3:0x113 / me=hex / subme=2 / psy=1 / psy_rd=1.00:0.15 / mixed_ref=0 / me_range=16 / chroma_me=1 / trellis=0 / 8x8dct=1 / cqm=0 / deadzone=21,11 / fast_pskip=1 / chroma_qp_offset=0 / threads=12 / lookahead_threads=4 / sliced_threads=0 / nr=0 / decimate=1 / interlaced=0 / bluray_compat=0 / constrained_intra=0 / bframes=3 / b_pyramid=2 / b_adapt=1 / b_bias=0 / direct=1 / weightb=1 / open_gop=0 / weightp=1 / keyint=250 / keyint_min=23 / scenecut=40 / intra_refresh=0 / rc_lookahead=10 / rc=abr / mbtree=1 / bitrate=5000 / ratetol=1.0 / qcomp=0.60 / qpmin=0 / qpmax=69 / qpstep=4 / ip_ratio=1.40 / aq=1:1.00
Language                                 : Turkish
Default                                  : Yes
Forced                                   : No

Audio
ID                                       : 2
Format                                   : AC-3
Format/Info                              : Audio Coding 3
Commercial name                          : Dolby Digital
Codec ID                                 : A_AC3
Duration                                 : 1 h 32 min
Bit rate mode                            : Constant
Bit rate                                 : 192 kb/s
Channel(s)                               : 2 channels
Channel layout                           : L R
Sampling rate                            : 48.0 kHz
Frame rate                               : 31.250 FPS (1536 SPF)
Compression mode                         : Lossy
Stream size                              : 127 MiB (4%)
Title                                    : Aslı Gibidir - Yerli - 2019 | [FilmboL]
Language                                 : Turkish
Service kind                             : Complete Main
Default                                  : Yes
Forced                                   : Yes

Text
ID                                       : 3
Format                                   : UTF-8
Codec ID                                 : S_TEXT/UTF8
Codec ID/Info                            : UTF-8 Plain Text
Duration                                 : 41 min 10 s
Bit rate                                 : 1 b/s
Count of elements                        : 4
Stream size                              : 456 Bytes (0%)
Title                                    : Aslı Gibidir - Yerli - 2019 | [FilmboL]
Language                                 : Turkish
Default                                  : No
Forced                                   : Yes

Film Detayları


 Aslı Gibidir

 Aslı Gibidir

 Aslı Gibidir


Film Fragmanı


Film İndir


Rar Şifresi: filmbol.org


Uptobox ile indir

1Fichier ile indir

1Fichier'den İndiremiyor musun? Tıklayın!












Şuan Offine!
Rapor Et!
Şuan Offine!
muratti372 Üye
*
Üye
  • Konular0
  • Mesajlar4
  • Rep puanı 0
weqweqwe
Şuan Offine!
Rapor Et!
Şuan Offine!
atil72 Üye
*
Üye
  • Konular0
  • Mesajlar3
  • Rep puanı 0
Tşkler
Şuan Offine!
Rapor Et!
Şuan Offine!
mura2 Uzman Üye
**
Uzman Üye
  • Konular0
  • Mesajlar6
  • Rep puanı 0
sagolllll
Şuan Online!
Rapor Et!
Şuan Online!
BroserBros Kurucu Admin
*******
Admin
09.09.2021 Yönetici Notu:

Kırık linkler kontrol edildi, kaldırıldı ve yenilendi. Tüm linkler tamamen çalışır durumda.
Şuan Offine!
Rapor Et!
Şuan Offine!
ceLlatiZm Üye
*
Üye
  • Konular0
  • Mesajlar9
  • Rep puanı 0
Teşekkürler.


Hızlı Menü: