Filmbol Forum Film İndir 720P v El Camino: Bir Breaking Bad Filmi (2019) Türkçe Dublaj BLURAY m720P İndir
Mega linklerinin şikayet edilmemesi için global erişime kapatıp sadece yorum yapanlara açıyoruz. Bu linkleri gizleme işlemini mecburen yapıyoruz ve yorum yapmanızın siteye değil size faydası vardır. Teşekürler yazmayı çok görüp, Random/Spam mesajlar atarak Mega linklerini açmaya çalışan kullanıcılara önce süresiz ban, devam ederse IP ban atacağız.
Filmbol'da moderatör olmak ister misiniz? Bizimle iletişime geçmek için tıklayın!
El Camino: Bir Breaking Bad Filmi (2019) Türkçe Dublaj BLURAY m720P İndir
BroserBros
El Camino: Bir Breaking Bad Filmi (2019) Türkçe Dublaj BLURAY m720P İndir
4
937
  • Derecelendirme: 0/5 - 0 oy
  • 1
  • 2
  • 3
  • 4
  • 5
Konuyu Okuyanlar:1 Ziyaretçi
Şuan Online!
Filmin Yayınlanma Tarihi: 2019 
WWW
Şuan Online!
BroserBros Kurucu Admin
*******
Admin





Ses Kodek: AC3


Audio Coding 3 (AC3)






El Camino: Bir Breaking Bad Filmi



Teknik Detaylar


Kod :
General
Complete name                            : El.Camino.Bir.Breaking.Bad.Filmi.2019.m720p.NF.WEB-DL.TR.Filmbol.mkv
Format                                   : Matroska
Format version                           : Version 4 / Version 2
File size                                : 1.93 GiB
Duration                                 : 2h 2mn
Overall bit rate mode                    : Variable
Overall bit rate                         : 2 247 Kbps
Movie name                               : El Camino: Bir Breaking Bad Filmi (2019) - Filmbol.org
Encoded date                             : UTC 2019-11-13 02:57:25
Writing application                      : mkvmerge v35.0.0 ('All The Love In The World') 64-bit
Writing library                          : libebml v1.3.9 + libmatroska v1.5.2

Video
ID                                       : 1
Format                                   : AVC
Format/Info                              : Advanced Video Codec
Format profile                           : [email protected]
Format settings, CABAC                   : Yes
Format settings, ReFrames                : 3 frames
Codec ID                                 : V_MPEG4/ISO/AVC
Duration                                 : 2h 2mn
Bit rate mode                            : Variable
Bit rate                                 : 1 870 Kbps
Maximum bit rate                         : 2 805 Kbps
Width                                    : 1 280 pixels
Height                                   : 720 pixels
Display aspect ratio                     : 16:9
Frame rate mode                          : Constant
Frame rate                               : 24.000 fps
Color space                              : YUV
Chroma subsampling                       : 4:2:0
Bit depth                                : 8 bits
Scan type                                : Progressive
Bits/(Pixel*Frame)                       : 0.085
Stream size                              : 1.60 GiB (83%)
Title                                    : 720P - Filmbol.org
Writing library                          : x264 core 148 r2715 7e75228
Default                                  : Yes
Forced                                   : No

Audio
ID                                       : 2
Format                                   : AC-3
Format/Info                              : Audio Coding 3
Mode extension                           : CM (complete main)
Format settings, Endianness              : Big
Codec ID                                 : A_AC3
Duration                                 : 2h 2mn
Bit rate mode                            : Constant
Bit rate                                 : 384 Kbps
Channel(s)                               : 6 channels
Channel positions                        : Front: L C R, Side: L R, LFE
Sampling rate                            : 48.0 KHz
Frame rate                               : 31.250 fps (1536 spf)
Compression mode                         : Lossy
Stream size                              : 337 MiB (17%)
Title                                    : Türkçe - Filmbol.org
Language                                 : Turkish
Default                                  : Yes
Forced                                   : No

Text
ID                                       : 3
Format                                   : UTF-8
Codec ID                                 : S_TEXT/UTF8
Codec ID/Info                            : UTF-8 Plain Text
Duration                                 : 2h 1mn
Bit rate                                 : 0 bps
Count of elements                        : 16
Stream size                              : 353 Bytes (0%)
Title                                    : KISIM
Default                                  : Yes
Forced                                   : No

Film Detayları


El Camino: Bir Breaking Bad Filmi

El Camino: Bir Breaking Bad Filmi

El Camino: Bir Breaking Bad Filmi


Film Fragmanı


Film Detayları

Mini 720P İndir



Uptobox ile indir

MediaFire ile indir

Şuan Offine!
Şuan Offine!
firatcan143 Uzman Üye
**
Uzman Üye

  • Konular0
  • Mesajlar12
  • Rep puanı 0
efsane filim yalan söylüyorum yarak gibi filim
Şuan Offine!
Şuan Offine!
agresif Uzman Üye
**
Uzman Üye

  • Konular0
  • Mesajlar21
  • Rep puanı 0
teşekkürler
Şuan Offine!
Şuan Offine!
muti Uzman Üye
**
Uzman Üye

  • Konular0
  • Mesajlar9
  • Rep puanı 0
yonum
Şuan Offine!
Şuan Offine!
kadirhan83 Uzman Üye
**
Uzman Üye

  • Konular0
  • Mesajlar14
  • Rep puanı 0
teşekkürler


Konu ile Alakalı Benzer Konular
Konular Yazar Yorumlar Okunma Son Yorum
Filmin Yayınlanma Tarihi: 2019
Silahlar Fora (Guns Akimbo) - 2019 - TR+ORG - 720P | tt6902676 TheSteeL 4 157 10-04-2021, Saat: 16:21
Son Yorum: TheSteeL
Filmin Yayınlanma Tarihi: 2019
Barbarları Beklerken (Waiting for the Barbarians) - 2019 - TR+ORG - 720P | tt6149154 TheSteeL 2 37 09-04-2021, Saat: 19:41
Son Yorum: TheSteeL
Filmin Yayınlanma Tarihi: 2019
Polaroid (Polaroid) - 2019 - TR+ORG - 720P | tt5598292 TheSteeL 0 51 07-04-2021, Saat: 01:10
Son Yorum: TheSteeL
Filmin Yayınlanma Tarihi: 2019
Terminatör: Kara Kader (Terminator: Dark Fate) - 2019 - TR+ORG - 720P | tt6450804 BroserBros 4 366 06-04-2021, Saat: 22:16
Son Yorum: BroserBros
Filmin Yayınlanma Tarihi: 2019
O Bölüm 2 (It Chapter Two) - 2019 - TR+ORG - 720P | tt7349950 BroserBros 8 1,505 06-04-2021, Saat: 22:05
Son Yorum: BroserBros

Hızlı Menü: