⤤ Premium'a Yükselt
Filmbol Forum Film İndir BRRip XviD v The Laundromat (Kirli Para) - 2019 - TR - BRRip XviD | tt5865326

Filmbol TV kullanıma açıldı. Bu adresten giriş yapabilirsin: Giriş





The Laundromat (Kirli Para) - 2019 - TR - BRRip XviD | tt5865326
BroserBros
The Laundromat (Kirli Para) - 2019 - TR - BRRip XviD | tt5865326
2
665
  • Derecelendirme: 0/5 - 0 oy
  • 1
  • 2
  • 3
  • 4
  • 5
Konuyu Okuyanlar:1 Ziyaretçi
Şuan Online!
Filmin Yayınlanma Tarihi: 2019 
WWW
Rapor Et!
Şuan Online!
BroserBros Kurucu Admin
*******
Admin



 The Laundromat



The Laundromat, sigorta dolandırıcılığı mağduru olan bir kadının yaşadıklarını konu ediyor. Dul bir kadın olan Ellen Martin, aldığı kötü bir haber sonrası huzurlu tatilini yarıda bırakmak zorunda kalır. Sigorta dolandırıcılığı mağduru olan Ellen, başına gelen bu olayın ardındaki gerçekleri araştırmaya karar verir. Ellen, araştırmalarını ilerlettikçe yolu Panama’daki iki ortak avukata çıkar. Finans sistemini kendi çıkarları için kullanan Jürgen Mossack ve Ramón Fonseca, zenginleri daha da zengin yapma konusunda ustadır. İki avukat, yozlaşan finans sisteminin Ellen’ın yaşadığı dolandırıcılığın ardından yatan yasa dışı olayları nasıl desteklediğini ortaya çıkarmak için zorlu bir mücadeleye girişir.

The Laundromat (2019) (Kirli Para) | tt5865326 Filmi Imdb'den 45,000 kişi tarafından oylandı ve 6,3 puan aldı. Bu film için editör puanı %69 olarak belirlendi. İyi Seyirler!

Teknik Detaylar

Kod :
General
Unique ID                                : 169214477009346012478838742067975758098 (0x7F4D85D829570D97C4EFFCE58A172112)
Complete name                            : /home/BroserBros/Desktop/6/The.Laundromat.2019.BRRip.XviD.TR.Filmbol.avi
Format                                   : Matroska
Format version                           : Version 4
File size                                : 1.16 GiB
Duration                                 : 1 h 36 min
Overall bit rate                         : 1 724 kb/s
Movie name                               : The Laundromat - 2019 | Filmbol.org
Encoded date                             : UTC 2021-05-21 08:58:15
Writing application                      : mkvmerge v53.0.0 ('Fool's Gold') 64-bit
Writing library                          : libebml v1.4.1 + libmatroska v1.6.2
FileExtension_Invalid                    : mkv mk3d mka mks

Video
ID                                       : 1
Format                                   : MPEG-4 Visual
Format profile                           : Advanced [email protected]
Format settings                          : BVOP2 / Custom Matrix
Format settings, BVOP                    : 2
Format settings, QPel                    : No
Format settings, GMC                     : No warppoints
Format settings, Matrix                  : Custom
Muxing mode                              : Packed bitstream
Codec ID                                 : V_MS/VFW/FOURCC / XVID
Codec ID/Hint                            : XviD
Duration                                 : 1 h 36 min
Bit rate                                 : 1 594 kb/s
Width                                    : 720 pixels
Height                                   : 400 pixels
Display aspect ratio                     : 16:9
Frame rate mode                          : Constant
Frame rate                               : 24.000 FPS
Color space                              : YUV
Chroma subsampling                       : 4:2:0
Bit depth                                : 8 bits
Scan type                                : Progressive
Compression mode                         : Lossy
Bits/(Pixel*Frame)                       : 0.231
Stream size                              : 1.07 GiB (92%)
Title                                    : The Laundromat - 2019 | Filmbol.org
Writing library                          : XviD 1.2.1 (UTC 2008-12-04)
Default                                  : Yes
Forced                                   : No

Audio
ID                                       : 2
Format                                   : MPEG Audio
Format version                           : Version 1
Format profile                           : Layer 3
Format settings                          : Joint stereo / MS Stereo
Codec ID                                 : A_MPEG/L3
Codec ID/Hint                            : MP3
Duration                                 : 1 h 36 min
Bit rate mode                            : Constant
Bit rate                                 : 128 kb/s
Channel(s)                               : 2 channels
Sampling rate                            : 48.0 kHz
Frame rate                               : 41.667 FPS (1152 SPF)
Compression mode                         : Lossy
Stream size                              : 87.9 MiB (7%)
Title                                    : The Laundromat - 2019 | Filmbol.org
Writing library                          : LAME3.98.4
Default                                  : Yes
Forced                                   : No

Film Detayları


 The Laundromat

 The Laundromat

 The Laundromat


Film Fragmanı


Film İndir


Rar Şifresi: filmbol.org



Uptobox ile indir

1Fichier ile indir

1Fichier'den İndiremiyor musun? Tıklayın!












Şuan Offine!
Rapor Et!
Şuan Offine!
komador06 Süper Üye
***
Super Üye
  • Konular0
  • Mesajlar27
  • Rep puanı 0
teşekkürler...
Şuan Online!
Rapor Et!
Şuan Online!
BroserBros Kurucu Admin
*******
Admin
22.05.2021 Yönetici Notu:

Kırık linkler kontrol edildi, kaldırıldı ve yenilendi. Tüm linkler tamamen çalışır durumda.


Hızlı Menü: