Filmbol Forum Film İndir 720P v Evcil Hayvanların Gizli Yaşamı 2 (Pets 2) Türkçe Dublaj BLURAY m720P İndir
Mega linklerinin şikayet edilmemesi için global erişime kapatıp sadece yorum yapanlara açıyoruz. Bu linkleri gizleme işlemini mecburen yapıyoruz ve yorum yapmanızın siteye değil size faydası vardır. Teşekürler yazmayı çok görüp, Random/Spam mesajlar atarak Mega linklerini açmaya çalışan kullanıcılara önce süresiz ban, devam ederse IP ban atacağız.
Filmbol'da moderatör olmak ister misiniz? Bizimle iletişime geçmek için tıklayın!
Evcil Hayvanların Gizli Yaşamı 2 (Pets 2) Türkçe Dublaj BLURAY m720P İndir
BroserBros
Evcil Hayvanların Gizli Yaşamı 2 (Pets 2) Türkçe Dublaj BLURAY m720P İndir
6
906
  • Derecelendirme: 0/5 - 0 oy
  • 1
  • 2
  • 3
  • 4
  • 5
Konuyu Okuyanlar:1 Ziyaretçi
Şuan Online!
Filmin Yayınlanma Tarihi: 2019 
WWW
Şuan Online!
BroserBros Kurucu Admin
*******
Admin





Ses Kodek: AC3


Audio Coding 3 (AC3)






Evcil Hayvanlarin Gizli Yasami 2



Teknik Detaylar


Kod :
General
Complete name                            : Evcil.Hayvanların.Gizli.Yaşamı.2.2019.m720p.BLURAY.x264.TR.Filmbol.mkv
Format                                   : Matroska
Format version                           : Version 4 / Version 2
File size                                : 853 MiB
Duration                                 : 1h 26mn
Overall bit rate                         : 1 385 Kbps
Movie name                               : Evcil Hayvanların Gizli Yaşamı (2019) - Filmbol.org
Encoded date                             : UTC 2019-11-03 01:53:55
Writing application                      : mkvmerge v35.0.0 ('All The Love In The World') 64-bit
Writing library                          : libebml v1.3.9 + libmatroska v1.5.2

Video
ID                                       : 1
Format                                   : AVC
Format/Info                              : Advanced Video Codec
Format profile                           : [email protected]
Format settings, CABAC                   : Yes
Format settings, ReFrames                : 4 frames
Codec ID                                 : V_MPEG4/ISO/AVC
Duration                                 : 1h 26mn
Bit rate                                 : 1 000 Kbps
Width                                    : 1 280 pixels
Height                                   : 694 pixels
Display aspect ratio                     : 1.85:1
Frame rate mode                          : Constant
Frame rate                               : 23.976 (24000/1001) fps
Color space                              : YUV
Chroma subsampling                       : 4:2:0
Bit depth                                : 8 bits
Scan type                                : Progressive
Bits/(Pixel*Frame)                       : 0.047
Stream size                              : 615 MiB (72%)
Title                                    : 720P - Filmbol.org
Writing library                          : x264 core 157
Default                                  : Yes
Forced                                   : No

Audio
ID                                       : 2
Format                                   : AC-3
Format/Info                              : Audio Coding 3
Mode extension                           : CM (complete main)
Format settings, Endianness              : Big
Codec ID                                 : A_AC3
Duration                                 : 1h 26mn
Bit rate mode                            : Constant
Bit rate                                 : 384 Kbps
Channel(s)                               : 6 channels
Channel positions                        : Front: L C R, Side: L R, LFE
Sampling rate                            : 48.0 KHz
Frame rate                               : 31.250 fps (1536 spf)
Compression mode                         : Lossy
Stream size                              : 236 MiB (28%)
Title                                    : Türkçe - Filmbol.org
Language                                 : Turkish
Default                                  : Yes
Forced                                   : No

Text
ID                                       : 3
Format                                   : UTF-8
Codec ID                                 : S_TEXT/UTF8
Codec ID/Info                            : UTF-8 Plain Text
Duration                                 : 1h 14mn
Bit rate                                 : 1 bps
Count of elements                        : 22
Stream size                              : 959 Bytes (0%)
Title                                    : KISIM
Language                                 : Turkish
Default                                  : Yes
Forced                                   : Yes

Film Detayları


Evcil Hayvanlarin Gizli Yasami 2

Evcil Hayvanlarin Gizli Yasami 2

Evcil Hayvanlarin Gizli Yasami 2


Film Fragmanı


Film Detayları

Mini 720P İndir


Uptobox ile indir

b1jd
Mega linki şuan da gizli. Kullanıma açmak için konuya yorum yapın ve ardından sayfayı yenileyin.

Mega


MediaFire ile indir

Şuan Offine!
Şuan Offine!
Aliihsan Yeni Üye
*
Üye

  • Konular0
  • Mesajlar1
  • Rep puanı 0
indirme seçenekleri bol çok iyi site
Şuan Offine!
Şuan Offine!
yunuser34 Uzman Üye
**
Uzman Üye

  • Konular0
  • Mesajlar15
  • Rep puanı 0
Mehadan indirmek icin yorum yaziyom site cok guzel
Şuan Offine!
Şuan Offine!
kexal Uzman Üye
**
Uzman Üye

  • Konular0
  • Mesajlar15
  • Rep puanı 0
For megaa
Şuan Offine!
Şuan Offine!
Ozan3458 Yeni Üye
*
Üye

  • Konular0
  • Mesajlar1
  • Rep puanı 0
Site çok hoşuma gitti
Şuan Offine!
Şuan Offine!
KAAN ENES Yeni Üye
*
Üye

  • Konular0
  • Mesajlar2
  • Rep puanı 0
cok güzel tavsiye ediyorum
Şuan Offine!
Şuan Offine!
Thetim3 Yeni Üye
*
Üye

  • Konular0
  • Mesajlar1
  • Rep puanı 0
Emeğinize sağlık


Konu ile Alakalı Benzer Konular
Konular Yazar Yorumlar Okunma Son Yorum
Filmin Yayınlanma Tarihi: 2014
Hobbit: Beş Ordunun Savaşı Türkçe Dublaj 720P İndir BroserBros 7 5,600 03-04-2021, Saat: 22:08
Son Yorum: Dilan
Filmin Yayınlanma Tarihi: 2013
Hobbit: Smaug'un Çorak Toprakları Türkçe Dublaj 720P İndir BroserBros 2 4,032 03-04-2021, Saat: 22:07
Son Yorum: Dilan
Filmin Yayınlanma Tarihi: 2012
Hobbit: Beklenmedik Yolculuk (An Unexpected Journey) Türkçe Dublaj 720P İndir BroserBros 3 6,128 03-04-2021, Saat: 20:48
Son Yorum: Dilan
Filmin Yayınlanma Tarihi: 2014
İnsan Avı (A Most Wanted Man) Türkçe Dublaj m720P İndir BroserBros 2 1,187 03-04-2021, Saat: 00:51
Son Yorum: jonwik47
Filmin Yayınlanma Tarihi: 2015
Çılgın Max: Öfkeli Yollar (2015) Türkçe Dublaj 720P İndir BroserBros 6 3,395 01-04-2021, Saat: 07:25
Son Yorum: sdef

Hızlı Menü: