⤤ Premium'a Yükselt
Filmbol Forum Film İndir 720P v Enzo: Yağmurda Yarış Sanatı (The Art of Racing in the Rain) - 2019 - TR+ORG - 720P | tt1478839

Filmbol TV kullanıma açıldı. Bu adresten giriş yapabilirsin: Giriş





Enzo: Yağmurda Yarış Sanatı (The Art of Racing in the Rain) - 2019 - TR+ORG - 720P | tt1478839
BroserBros
Enzo: Yağmurda Yarış Sanatı (The Art of Racing in the Rain) - 2019 - TR+ORG - 720P | tt1478839
4
735
  • Derecelendirme: 0/5 - 0 oy
  • 1
  • 2
  • 3
  • 4
  • 5
Konuyu Okuyanlar:2 Ziyaretçi
Şuan Online!
Filmin Yayınlanma Tarihi: 2019 
WWW
Rapor Et!
Şuan Online!
BroserBros Kurucu Admin
*******
Admin



 Enzo: Yağmurda Yarış Sanatı



Garth Stein’in yayımlanır yayımlanmaz en çok satanlar listesine giren ve tam 23 dile çevrilen kitabı The Art of Racing in the Rain’den uyarlanan film, Enzo isimli yaşlı bir golden cinsi köpeğin gözünden, insan hayatına şefkatli bir bakış atıyor. Enzo tüm hayatını, çevresinde akıp giden dünyayı gözlemleyerek ve bir araba yarışçısı olan sahibi Denny, onun beyin tümörü savaşı veren eşi Eve ve kızları Zoe’den oluşan ailesinden aldığı hayat derslerini uygulayarak geçirmektedir.

Enzo: Yağmurda Yarış Sanatı (2019) (The Art of Racing in the Rain) | tt1478839 Filmi Imdb'den 30,000 kişi tarafından oylandı ve 7,6 puan aldı. Bu film için editör puanı %79 olarak belirlendi. İyi Seyirler!

Teknik Detaylar

Kod :
General
Unique ID                                : 252842689852109815340034797145341216250 (0xBE37BB131FBF64343010E157BC72C5FA)
Complete name                            : /home/BroserBros/Desktop/8/Enzo.Yağmurda.Yarış.Sanatı.2019.720p.BluRay.x264.TR.ENG.Filmbol.mkv
Format                                   : Matroska
Format version                           : Version 4
File size                                : 1.37 GiB
Duration                                 : 1 h 48 min
Overall bit rate                         : 1 805 kb/s
Movie name                               : Enzo: Yağmurda Yarış Sanatı - The Art of Racing in The Rain - 2019 | Filmbol.org
Encoded date                             : UTC 2021-06-16 15:16:36
Writing application                      : mkvmerge v53.0.0 ('Fool's Gold') 64-bit
Writing library                          : libebml v1.4.1 + libmatroska v1.6.2

Video
ID                                       : 1
Format                                   : AVC
Format/Info                              : Advanced Video Codec
Format profile                           : [email protected]
Format settings                          : CABAC / 4 Ref Frames
Format settings, CABAC                   : Yes
Format settings, Reference frames        : 4 frames
Codec ID                                 : V_MPEG4/ISO/AVC
Duration                                 : 1 h 48 min
Bit rate                                 : 1 100 kb/s
Width                                    : 1 280 pixels
Height                                   : 694 pixels
Display aspect ratio                     : 1.85:1
Frame rate mode                          : Constant
Frame rate                               : 23.976 (24000/1001) FPS
Color space                              : YUV
Chroma subsampling                       : 4:2:0
Bit depth                                : 8 bits
Scan type                                : Progressive
Bits/(Pixel*Frame)                       : 0.052
Stream size                              : 856 MiB (61%)
Title                                    : 720P - Filmbol.org
Writing library                          : x264 core 158
Encoding settings                        : cabac=1 / ref=4 / deblock=1:-1:-1 / analyse=0x3:0x133 / me=umh / subme=9 / psy=1 / psy_rd=1.00:0.15 / mixed_ref=1 / me_range=24 / chroma_me=1 / trellis=2 / 8x8dct=1 / cqm=0 / deadzone=21,11 / fast_pskip=0 / chroma_qp_offset=-3 / threads=18 / lookahead_threads=1 / sliced_threads=0 / nr=0 / decimate=1 / interlaced=0 / bluray_compat=0 / constrained_intra=0 / bframes=3 / b_pyramid=2 / b_adapt=2 / b_bias=0 / direct=3 / weightb=1 / open_gop=0 / weightp=2 / keyint=250 / keyint_min=23 / scenecut=40 / intra_refresh=0 / rc_lookahead=60 / rc=2pass / mbtree=1 / bitrate=1100 / ratetol=1.0 / qcomp=0.60 / qpmin=0 / qpmax=69 / qpstep=4 / cplxblur=20.0 / qblur=0.5 / vbv_maxrate=31250 / vbv_bufsize=31250 / nal_hrd=none / filler=0 / ip_ratio=1.40 / aq=1:1.00
Default                                  : Yes
Forced                                   : No

Audio #1
ID                                       : 2
Format                                   : AC-3
Format/Info                              : Audio Coding 3
Commercial name                          : Dolby Digital
Codec ID                                 : A_AC3
Duration                                 : 1 h 48 min
Bit rate mode                            : Constant
Bit rate                                 : 384 kb/s
Channel(s)                               : 6 channels
Channel layout                           : L R C LFE Ls Rs
Sampling rate                            : 48.0 kHz
Frame rate                               : 31.250 FPS (1536 SPF)
Compression mode                         : Lossy
Stream size                              : 299 MiB (21%)
Title                                    : Türkçe - Filmbol.org
Language                                 : Turkish
Service kind                             : Complete Main
Default                                  : Yes
Forced                                   : Yes

Audio #2
ID                                       : 3
Format                                   : AC-3
Format/Info                              : Audio Coding 3
Commercial name                          : Dolby Digital
Codec ID                                 : A_AC3
Duration                                 : 1 h 48 min
Bit rate mode                            : Constant
Bit rate                                 : 320 kb/s
Channel(s)                               : 6 channels
Channel layout                           : L R C LFE Ls Rs
Sampling rate                            : 48.0 kHz
Frame rate                               : 31.250 FPS (1536 SPF)
Compression mode                         : Lossy
Stream size                              : 249 MiB (18%)
Title                                    : Orijinal Dil - Filmbol.org
Language                                 : English
Service kind                             : Complete Main
Default                                  : No
Forced                                   : No

Text #1
ID                                       : 4
Format                                   : UTF-8
Codec ID                                 : S_TEXT/UTF8
Codec ID/Info                            : UTF-8 Plain Text
Duration                                 : 1 h 44 min
Bit rate                                 : 0 b/s
Count of elements                        : 6
Stream size                              : 166 Bytes (0%)
Title                                    : Türkçe - Filmbol.org
Language                                 : Turkish
Default                                  : Yes
Forced                                   : Yes

Text #2
ID                                       : 5
Format                                   : UTF-8
Codec ID                                 : S_TEXT/UTF8
Codec ID/Info                            : UTF-8 Plain Text
Duration                                 : 1 h 48 min
Bit rate                                 : 62 b/s
Count of elements                        : 1422
Stream size                              : 49.8 KiB (0%)
Title                                    : Türkçe - Filmbol.org
Language                                 : Turkish
Default                                  : No
Forced                                   : No

Film Detayları


 Enzo: Yağmurda Yarış Sanatı

 Enzo: Yağmurda Yarış Sanatı

 Enzo: Yağmurda Yarış Sanatı


Film Fragmanı


Film İndir


Rar Şifresi: filmbol.org


Uptobox ile indir

1Fichier ile indir

1Fichier'den İndiremiyor musun? Tıklayın!












Şuan Offine!
Rapor Et!
Şuan Offine!
emreakbdk Uzman Üye
**
Uzman Üye
  • Konular0
  • Mesajlar14
  • Rep puanı 0
bakalım
Şuan Offine!
Rapor Et!
Şuan Offine!
hongada Üye
*
Üye
  • Konular0
  • Mesajlar3
  • Rep puanı 0
Ellerine sağlık
Şuan Offine!
Rapor Et!
Şuan Offine!
gonenoya Cezalı Üye
  • Konular0
  • Mesajlar45
dxdiag
Şuan Online!
Rapor Et!
Şuan Online!
BroserBros Kurucu Admin
*******
Admin
18.06.2021 Yönetici Notu:

Kırık linkler kontrol edildi, kaldırıldı ve yenilendi. Tüm linkler tamamen çalışır durumda.


Hızlı Menü: