Filmbol Forum Film İndir 1080P v Ölümcül Sular (Crawl) - 2019 - TR+ORG - 1080P | tt8364368
Mega linklerinin şikayet edilmemesi için global erişime kapatıp sadece yorum yapanlara açıyoruz. Bu linkleri gizleme işlemini mecburen yapıyoruz ve yorum yapmanızın siteye değil size faydası vardır. Teşekürler yazmayı çok görüp, Random/Spam mesajlar atarak Mega linklerini açmaya çalışan kullanıcılara önce süresiz ban, devam ederse IP ban atacağız.
Filmbol'da moderatör olmak ister misiniz? Bizimle iletişime geçmek için tıklayın!
Ölümcül Sular (Crawl) - 2019 - TR+ORG - 1080P | tt8364368
BroserBros
Ölümcül Sular (Crawl) - 2019 - TR+ORG - 1080P | tt8364368
7
964
  • Derecelendirme: 0/5 - 0 oy
  • 1
  • 2
  • 3
  • 4
  • 5
Konuyu Okuyanlar:1 Ziyaretçi
Şuan Online!
Filmin Yayınlanma Tarihi: 2019 
WWW
Şuan Online!
BroserBros Kurucu Admin
*******
Admin












 Ölümcül Sular



Ölümcül Sular, şiddetli bir kasırgaya karşı yaşam savaşı veren genç bir kadının hikayesini konu ediyor. Florida’da 5. Kategorideki bir kasırga ile karşı karşıya kalan genç kadın, bölgedeki diğer sakinler gibi evini terk etme emrini yerine getirmemeye karar verir. Kasırga yaklaşırken botuna atlayıp kayıp olan babasını aramaya çıkar. Bölgeyi sel basmaya başladığında babasını ve köpeğini bulan genç kadın, yaralanmış olan babasını kurtarmaya çalışırken kendisini su altında kalan bir evin içinde bulur. Evin içine hapsolan baba-kız kısa süre sonra korkulması gereken tek şeyin kasırga ve seller olmadığını fark ederler. Azgın suların içinde devasa bir timsah sürüsü dolaşmaktadır. Baba kız, Florida’nın en vahşi ve korkulu avcılarına karşı kendini korumak için savaşmak zorundadırlar…

Ölümcül Sular (2019) (Crawl) | tt8364368 Filmi Imdb'den 70,000 kişi tarafından oylandı ve 6,1 puan aldı. Bu film için editör puanı 6 olarak belirlendi. İyi Seyirler!

Teknik Detaylar

Kod :
General
Unique ID                                : 160092232281306304814500747880218778144 (0x7870A4746BA88A54FEBBC288FA705A20)
Complete name                            : /home/BroserBros/Desktop/4/Ölümcül.Sular.2019.1080p.BluRay.x264.TR.ENG.Filmbol.mkv
Format                                   : Matroska
Format version                           : Version 4
File size                                : 1.63 GiB
Duration                                 : 1 h 27 min
Overall bit rate                         : 2 673 kb/s
Movie name                               : Ölümcül Sular - Crawl - 2019 | Filmbol.org
Encoded date                             : UTC 2021-02-15 12:54:32
Writing application                      : mkvmerge v53.0.0 ('Fool's Gold') 64-bit
Writing library                          : libebml v1.4.1 + libmatroska v1.6.2

Video
ID                                       : 1
Format                                   : AVC
Format/Info                              : Advanced Video Codec
Format profile                           : [email protected]
Format settings                          : CABAC / 4 Ref Frames
Format settings, CABAC                   : Yes
Format settings, Reference frames        : 4 frames
Codec ID                                 : V_MPEG4/ISO/AVC
Duration                                 : 1 h 27 min
Bit rate                                 : 1 971 kb/s
Width                                    : 1 920 pixels
Height                                   : 800 pixels
Display aspect ratio                     : 2.40:1
Frame rate mode                          : Variable
Frame rate                               : 23.976 (23976/1000) FPS
Color space                              : YUV
Chroma subsampling                       : 4:2:0
Bit depth                                : 8 bits
Scan type                                : Progressive
Bits/(Pixel*Frame)                       : 0.054
Stream size                              : 1.20 GiB (74%)
Title                                    : 1080P - Filmbol.org
Writing library                          : x264 core 148 r2748 97eaef2
Encoding settings                        : cabac=1 / ref=2 / deblock=1:0:0 / analyse=0x3:0x113 / me=hex / subme=4 / psy=1 / psy_rd=1.00:0.00 / mixed_ref=0 / me_range=16 / chroma_me=1 / trellis=1 / 8x8dct=1 / cqm=0 / deadzone=21,11 / fast_pskip=1 / chroma_qp_offset=0 / threads=6 / lookahead_threads=1 / sliced_threads=0 / nr=0 / decimate=1 / interlaced=0 / bluray_compat=0 / constrained_intra=0 / bframes=3 / b_pyramid=2 / b_adapt=1 / b_bias=0 / direct=1 / weightb=1 / open_gop=0 / weightp=1 / keyint=250 / keyint_min=23 / scenecut=40 / intra_refresh=0 / rc_lookahead=20 / rc=2pass / mbtree=1 / bitrate=1971 / ratetol=1.0 / qcomp=0.60 / qpmin=0 / qpmax=69 / qpstep=4 / cplxblur=20.0 / qblur=0.5 / ip_ratio=1.40 / aq=1:1.00
Default                                  : Yes
Forced                                   : No

Audio #1
ID                                       : 2
Format                                   : AC-3
Format/Info                              : Audio Coding 3
Commercial name                          : Dolby Digital
Codec ID                                 : A_AC3
Duration                                 : 1 h 27 min
Bit rate mode                            : Constant
Bit rate                                 : 320 kb/s
Channel(s)                               : 6 channels
Channel layout                           : L R C LFE Ls Rs
Sampling rate                            : 48.0 kHz
Frame rate                               : 31.250 FPS (1536 SPF)
Compression mode                         : Lossy
Stream size                              : 200 MiB (12%)
Title                                    : İngilizce - Filmbol.org
Language                                 : English
Service kind                             : Complete Main
Default                                  : No
Forced                                   : No

Audio #2
ID                                       : 3
Format                                   : AC-3
Format/Info                              : Audio Coding 3
Commercial name                          : Dolby Digital
Codec ID                                 : A_AC3
Duration                                 : 1 h 27 min
Bit rate mode                            : Constant
Bit rate                                 : 384 kb/s
Channel(s)                               : 6 channels
Channel layout                           : L R C LFE Ls Rs
Sampling rate                            : 48.0 kHz
Frame rate                               : 31.250 FPS (1536 SPF)
Compression mode                         : Lossy
Delay relative to video                  : 24 ms
Stream size                              : 240 MiB (14%)
Title                                    : Türkçe - Filmbol.org
Language                                 : Turkish
Service kind                             : Complete Main
Default                                  : Yes
Forced                                   : Yes

Film Detayları


 Ölümcül Sular

 Ölümcül Sular

 Ölümcül Sular


Film Fragmanı


Film Detayları

Uptobox ile indir

1Fichier ile indir

1Fichier'den İndiremiyor musun? Tıklayın!


Mega linki şuan da gizli. Kullanıma açmak için konuya yorum yapın ve ardından sayfayı yenileyin.

Mega


Bunun için üzgünüz ancak, bu linke sadece premium üyeler erişebilir.

Filmbol Cloud





Şuan Offine!
Şuan Offine!
Aspirin46 Süper Üye
***
Super Üye

  • Konular0
  • Mesajlar57
  • Rep puanı 0
süper
Şuan Offine!
Şuan Offine!
steelhand Yeni Üye
*
Üye

  • Konular0
  • Mesajlar5
  • Rep puanı 0
mükemmelsiniz...
Şuan Offine!
Şuan Offine!
kyaaaa76 Uzman Üye
**
Uzman Üye

  • Konular0
  • Mesajlar14
  • Rep puanı 0
çok iyi
Şuan Offine!
Şuan Offine!
eyup Yeni Üye
*
Üye

  • Konular0
  • Mesajlar2
  • Rep puanı 0
Big Grin güzelmi bakalım
Şuan Offine!
Şuan Offine!
Ahmetshn07 Uzman Üye
**
Uzman Üye

  • Konular0
  • Mesajlar6
  • Rep puanı 0
kılolumusun
Şuan Offine!
Şuan Offine!
Burak Yeni Üye
*
Üye

  • Konular0
  • Mesajlar2
  • Rep puanı 0
Rolleyes Angry Huh hoştur boştur gel konuştur
Şuan Online!
Şuan Online!
BroserBros Kurucu Admin
*******
Admin

16.02.2021 Yönetici Notu:

Konu güncellendi. Kırık linkler kontrol edildi, kaldırıldı ve yenilendi. Tüm linkler tamamen çalışır durumda.


Konu ile Alakalı Benzer Konular
Konular Yazar Yorumlar Okunma Son Yorum
Filmin Yayınlanma Tarihi: 2021
Yıldırım Gücü (Thunder Force) - 2021 - TR+ORG - 1080P | tt10121392 TheSteeL 0 6 6 saat önce
Son Yorum: TheSteeL
Filmin Yayınlanma Tarihi: 2020
Kadaver (Cadaver) - 2020 - TR+ORG - 1080P BroserBros 2 116 8 saat önce
Son Yorum: ömerk
Filmin Yayınlanma Tarihi: 2019
47 Metre Derinde: Kafes (47 Meters Down: Uncaged) - 2019 - TR+ORG - 1080P BroserBros 2 128 8 saat önce
Son Yorum: ömerk
Filmin Yayınlanma Tarihi: 2004
Shrek 2 (Şrek 2) - 2004 - TR+ORG - 1080P BroserBros 3 277 9 saat önce
Son Yorum: Ardacngz
Filmin Yayınlanma Tarihi: 2020
Polis (Police) - 2020 - TR+ORG - 1080P | tt9850344 TheSteeL 2 85 , Saat: 16:08
Son Yorum: TheSteeL

Hızlı Menü: