Filmbol Forum Film İndir 1080P v Harry Potter ve Ateş Kadehi (Goblet of Fire) Türkçe Dublaj BLURAY 1080P İndir
Mega linklerinin şikayet edilmemesi için global erişime kapatıp sadece yorum yapanlara açıyoruz. Bu linkleri gizleme işlemini mecburen yapıyoruz ve yorum yapmanızın siteye değil size faydası vardır. Teşekürler yazmayı çok görüp, Random/Spam mesajlar atarak Mega linklerini açmaya çalışan kullanıcılara önce süresiz ban, devam ederse IP ban atacağız.
Filmbol'da moderatör olmak ister misiniz? Bizimle iletişime geçmek için tıklayın!
Harry Potter ve Ateş Kadehi (Goblet of Fire) Türkçe Dublaj BLURAY 1080P İndir
BroserBros
Harry Potter ve Ateş Kadehi (Goblet of Fire) Türkçe Dublaj BLURAY 1080P İndir
31
3137
  • Derecelendirme: 0/5 - 0 oy
  • 1
  • 2
  • 3
  • 4
  • 5
Konuyu Okuyanlar:1 Ziyaretçi
Şuan Online!
Filmin Yayınlanma Tarihi: 2005 
WWW
Şuan Online!
BroserBros Kurucu Admin
*******
Admin





Ses Kodek: AC3


Audio Coding 3 (AC3)






Harry Potter Ates Kadegi



Teknik Detaylar

Kod :
General
Complete name                            : Harry.Potter.ve.Ateş.Kadehi.2005.m1080p.BLURAY.x264.TR.Filmbol.mkv
Format                                   : Matroska
Format version                           : Version 4 / Version 2
File size                                : 2.58 GiB
Duration                                 : 2h 37mn
Overall bit rate                         : 2 349 Kbps
Movie name                               : Harry Potter ve Ateş Kadehi (2005) - Filmbol.org
Encoded date                             : UTC 2019-09-28 18:08:46
Writing application                      : mkvmerge v35.0.0 ('All The Love In The World') 64-bit
Writing library                          : libebml v1.3.9 + libmatroska v1.5.2

Video
ID                                       : 1
Format                                   : AVC
Format/Info                              : Advanced Video Codec
Format profile                           : [email protected]
Format settings, CABAC                   : Yes
Format settings, ReFrames                : 4 frames
Codec ID                                 : V_MPEG4/ISO/AVC
Duration                                 : 2h 37mn
Bit rate                                 : 2 156 Kbps
Width                                    : 1 920 pixels
Height                                   : 800 pixels
Display aspect ratio                     : 2.40:1
Frame rate mode                          : Constant
Frame rate                               : 23.976 (24000/1001) fps
Color space                              : YUV
Chroma subsampling                       : 4:2:0
Bit depth                                : 8 bits
Scan type                                : Progressive
Bits/(Pixel*Frame)                       : 0.059
Stream size                              : 2.37 GiB (92%)
Title                                    : 1080P - Filmbol.org
Writing library                          : x264 core 130
Language                                 : English
Default                                  : Yes
Forced                                   : No

Audio
ID                                       : 2
Format                                   : AC-3
Format/Info                              : Audio Coding 3
Mode extension                           : CM (complete main)
Format settings, Endianness              : Big
Codec ID                                 : A_AC3
Duration                                 : 2h 37mn
Bit rate mode                            : Constant
Bit rate                                 : 192 Kbps
Channel(s)                               : 2 channels
Channel positions                        : Front: L R
Sampling rate                            : 48.0 KHz
Frame rate                               : 31.250 fps (1536 spf)
Compression mode                         : Lossy
Stream size                              : 216 MiB (8%)
Title                                    : Türkçe - Filmbol.org
Language                                 : Turkish
Default                                  : Yes
Forced                                   : No



Film Detayları


Harry Potter Ates Kadehi

Harry Potter Ates Kadehi

Harry Potter Ates Kadehi


Film Fragmanı


Film Detayları

Mini 1080P İndir


Uptobox ile indir

MediaFire ile indir

Google Drive linki şuan da gizli. Kullanıma açmak için konuya yorum yapın ve ardından sayfayı yenileyin.

Google Drive

Şuan Offine!
Şuan Offine!
Dralix Uzman Üye
**
Uzman Üye

  • Konular0
  • Mesajlar5
  • Rep puanı 0
teşekkürler
Şuan Offine!
Şuan Offine!
fantom1980 Uzman Üye
**
Uzman Üye

  • Konular0
  • Mesajlar19
  • Rep puanı 0
teşekkürler
Şuan Offine!
Şuan Offine!
AhdeM Uzman Üye
**
Uzman Üye

  • Konular0
  • Mesajlar6
  • Rep puanı 0
emeğe saglik
Şuan Offine!
Şuan Offine!
thor Süper Üye
***
Super Üye

  • Konular0
  • Mesajlar34
  • Rep puanı 0
Teseekurler
Şuan Offine!
Şuan Offine!
bgl_78 Yeni Üye
*
Üye

  • Konular0
  • Mesajlar4
  • Rep puanı 0
tesekkur
Şuan Offine!
Şuan Offine!
EgoMenYT0 Uzman Üye
**
Uzman Üye

  • Konular0
  • Mesajlar6
  • Rep puanı 0
eyw adamsınız
Şuan Offine!
Şuan Offine!
Nahid Abbaszade Yeni Üye
*
Üye

  • Konular0
  • Mesajlar1
  • Rep puanı 0
Teşekkürler
Şuan Offine!
Şuan Offine!
eneskibaroglu Yeni Üye
*
Üye

  • Konular0
  • Mesajlar4
  • Rep puanı 0
Güzel
Şuan Offine!
Şuan Offine!
Ayd Yeni Üye
*
Üye

  • Konular0
  • Mesajlar1
  • Rep puanı 0
Teskler


Konu ile Alakalı Benzer Konular
Konular Yazar Yorumlar Okunma Son Yorum
Filmin Yayınlanma Tarihi: 2015
Yeni Ahit (Le tout nouveau testament) - 2015 - TR+ORG - 1080P | tt3792960 TheSteeL 0 9 , Saat: 23:52
Son Yorum: TheSteeL
Filmin Yayınlanma Tarihi: 2015
Diriliş (The Revenant) - 2015 - TR+ORG - 1080P | tt1663202 BroserBros 5 3,152 , Saat: 19:43
Son Yorum: BroserBros
Filmin Yayınlanma Tarihi: 2018
Adalet 2 (The Equalizer 2) - 2018 - TR+ORG - 1080P | tt3766354 BroserBros 6 1,201 , Saat: 19:30
Son Yorum: BroserBros
Filmin Yayınlanma Tarihi: 2019
Aslan Kral (The Lion King) - 2019 - TR+ORG - 1080P | tt6105098 BroserBros 49 5,140 , Saat: 19:18
Son Yorum: BroserBros
Filmin Yayınlanma Tarihi: 2015
Ters Yüz (Inside Out) - 2015 - TR+ORG - 1080P | tt2096673 BroserBros 25 9,574 , Saat: 19:07
Son Yorum: BroserBros

Hızlı Menü: