Filmbol Forum Film İndir 1080P v Harry Potter ve Sırlar Odası (Chamber of Secrets) Türkçe Dublaj BLURAY 1080P İndir
Mega linklerinin şikayet edilmemesi için global erişime kapatıp sadece yorum yapanlara açıyoruz. Bu linkleri gizleme işlemini mecburen yapıyoruz ve yorum yapmanızın siteye değil size faydası vardır. Teşekürler yazmayı çok görüp, Random/Spam mesajlar atarak Mega linklerini açmaya çalışan kullanıcılara önce süresiz ban, devam ederse IP ban atacağız.
Filmbol'da moderatör olmak ister misiniz? Bizimle iletişime geçmek için tıklayın!
Harry Potter ve Sırlar Odası (Chamber of Secrets) Türkçe Dublaj BLURAY 1080P İndir
BroserBros
Harry Potter ve Sırlar Odası (Chamber of Secrets) Türkçe Dublaj BLURAY 1080P İndir
25
3131
  • Derecelendirme: 0/5 - 0 oy
  • 1
  • 2
  • 3
  • 4
  • 5
Konuyu Okuyanlar:4 Ziyaretçi
Şuan Online!
Filmin Yayınlanma Tarihi: 2002 
WWW
Şuan Online!
BroserBros Kurucu Admin
*******
Admin





Ses Kodek: AC3


Audio Coding 3 (AC3)






Harry Potter ve Sirlar Odasi



Teknik Detaylar

Kod :
General
Complete name                            : Harry.Potter.ve.Sırlar.Odası.2002.m1080p.BLURAY.x264.TR.Filmbol.mkv
Format                                   : Matroska
Format version                           : Version 4 / Version 2
File size                                : 2.54 GiB
Duration                                 : 2h 40mn
Overall bit rate                         : 2 256 Kbps
Movie name                               : Harry Potter ve Sırlar Odası (2002) - Filmbol.org
Encoded date                             : UTC 2019-09-17 05:36:44
Writing application                      : mkvmerge v35.0.0 ('All The Love In The World') 64-bit
Writing library                          : libebml v1.3.9 + libmatroska v1.5.2

Video
ID                                       : 1
Format                                   : AVC
Format/Info                              : Advanced Video Codec
Format profile                           : [email protected]
Format settings, CABAC                   : Yes
Format settings, ReFrames                : 4 frames
Codec ID                                 : V_MPEG4/ISO/AVC
Duration                                 : 2h 40mn
Bit rate                                 : 2 063 Kbps
Width                                    : 1 920 pixels
Height                                   : 802 pixels
Display aspect ratio                     : 2.40:1
Frame rate mode                          : Constant
Frame rate                               : 23.976 (24000/1001) fps
Color space                              : YUV
Chroma subsampling                       : 4:2:0
Bit depth                                : 8 bits
Scan type                                : Progressive
Bits/(Pixel*Frame)                       : 0.056
Stream size                              : 2.32 GiB (91%)
Title                                    : 1080P - Filmbol.org
Writing library                          : x264 core 130
Language                                 : English
Default                                  : Yes
Forced                                   : No

Audio
ID                                       : 2
Format                                   : AC-3
Format/Info                              : Audio Coding 3
Mode extension                           : CM (complete main)
Format settings, Endianness              : Big
Codec ID                                 : A_AC3
Duration                                 : 2h 40mn
Bit rate mode                            : Constant
Bit rate                                 : 192 Kbps
Channel(s)                               : 2 channels
Channel positions                        : Front: L R
Sampling rate                            : 48.0 KHz
Frame rate                               : 31.250 fps (1536 spf)
Compression mode                         : Lossy
Stream size                              : 221 MiB (9%)
Title                                    : Türkçe - Filmbol.org
Language                                 : Turkish
Default                                  : Yes
Forced                                   : No



Film Detayları


Harry Potter ve Sirlar Odasi

Harry Potter ve Sirlar Odasi

Harry Potter ve Sirlar Odasi


Film Fragmanı


Film Detayları

Mini 1080P İndir


Uptobox ile indir

1Fichier ile indir

1Fichier'den İndiremiyor musun? Tıklayın!


Mega linki şuan da gizli. Kullanıma açmak için konuya yorum yapın ve ardından sayfayı yenileyin.

Mega


MediaFire ile indir

Google Drive linki şuan da gizli. Kullanıma açmak için konuya yorum yapın ve ardından sayfayı yenileyin.

Google Drive

Şuan Offine!
Şuan Offine!
burukalibey Uzman Üye
**
Uzman Üye

  • Konular0
  • Mesajlar10
  • Rep puanı 0
güzel filmdir.
Şuan Offine!
Şuan Offine!
fantom1980 Uzman Üye
**
Uzman Üye

  • Konular0
  • Mesajlar19
  • Rep puanı 0
bu kalitede olması güzel
Şuan Offine!
Şuan Offine!
AhdeM Uzman Üye
**
Uzman Üye

  • Konular0
  • Mesajlar6
  • Rep puanı 0
emeğe saglik
Şuan Offine!
Şuan Offine!
bgl_78 Yeni Üye
*
Üye

  • Konular0
  • Mesajlar4
  • Rep puanı 0
güzel
Şuan Offine!
Şuan Offine!
EgoMenYT0 Uzman Üye
**
Uzman Üye

  • Konular0
  • Mesajlar6
  • Rep puanı 0
Eyw teşekürler
Şuan Offine!
Şuan Offine!
uvenix Süper Üye
***
Super Üye

  • Konular0
  • Mesajlar28
  • Rep puanı 0
asfawdwad
Şuan Offine!
Şuan Offine!
Forsa Uzman Üye
**
Uzman Üye

  • Konular0
  • Mesajlar7
  • Rep puanı 0
Elinize sağlık
Şuan Offine!
Şuan Offine!
asddasf Yeni Üye
*
Üye

  • Konular0
  • Mesajlar2
  • Rep puanı 0
güzel film
Şuan Offine!
Şuan Offine!
Pohmen Yeni Üye
*
Üye

  • Konular0
  • Mesajlar3
  • Rep puanı 0
HARİKKAA


Konu ile Alakalı Benzer Konular
Konular Yazar Yorumlar Okunma Son Yorum
Filmin Yayınlanma Tarihi: 2021
Yıldırım Gücü (Thunder Force) - 2021 - TR+ORG - 1080P | tt10121392 TheSteeL 0 6 7 saat önce
Son Yorum: TheSteeL
Filmin Yayınlanma Tarihi: 2020
Kadaver (Cadaver) - 2020 - TR+ORG - 1080P BroserBros 2 116 9 saat önce
Son Yorum: ömerk
Filmin Yayınlanma Tarihi: 2019
47 Metre Derinde: Kafes (47 Meters Down: Uncaged) - 2019 - TR+ORG - 1080P BroserBros 2 128 9 saat önce
Son Yorum: ömerk
Filmin Yayınlanma Tarihi: 2016
Jack Reacher: Asla Geri Dönme (J.R: Never Go Back) Türkçe Dublaj m1080P İndir BroserBros 6 2,301 9 saat önce
Son Yorum: Erenio0
Filmin Yayınlanma Tarihi: 2004
Shrek 2 (Şrek 2) - 2004 - TR+ORG - 1080P BroserBros 3 277 10 saat önce
Son Yorum: Ardacngz

Hızlı Menü: