Filmbol Forum Film İndir 1080P v Godzilla 2: Canavarlar Kralı (King of the Monsters) Türkçe Dublaj BLURAY m1080P İndir
Mega linklerinin şikayet edilmemesi için global erişime kapatıp sadece yorum yapanlara açıyoruz. Bu linkleri gizleme işlemini mecburen yapıyoruz ve yorum yapmanızın siteye değil size faydası vardır. Teşekürler yazmayı çok görüp, Random/Spam mesajlar atarak Mega linklerini açmaya çalışan kullanıcılara önce süresiz ban, devam ederse IP ban atacağız.
Filmbol'da moderatör olmak ister misiniz? Bizimle iletişime geçmek için tıklayın!
Godzilla 2: Canavarlar Kralı (King of the Monsters) Türkçe Dublaj BLURAY m1080P İndir
BroserBros
Godzilla 2: Canavarlar Kralı (King of the Monsters) Türkçe Dublaj BLURAY m1080P İndir
32
2442
  • Derecelendirme: 0/5 - 0 oy
  • 1
  • 2
  • 3
  • 4
  • 5
Konuyu Okuyanlar:1 Ziyaretçi
Şuan Online!
Filmin Yayınlanma Tarihi: 2019 
WWW
Şuan Online!
BroserBros Kurucu Admin
*******
Admin





Ses Kodek: AC3


Audio Coding 3 (AC3)






Godzilla 2



Teknik Detaylar


Kod :
General
Complete name                            : Godzilla.Canavarlar.Kralı.2019.BLURAY.1080P.x264.TR.Filmbol.mkv
Format                                   : Matroska
Format version                           : Version 4 / Version 2
File size                                : 2.19 GiB
Duration                                 : 2h 11mn
Overall bit rate                         : 2 385 Kbps
Movie name                               : Godzilla Canavarlar Kralı (2019) - Filmbol.org
Encoded date                             : UTC 2019-09-01 08:56:55
Writing application                      : mkvmerge v35.0.0 ('All The Love In The World') 64-bit
Writing library                          : libebml v1.3.9 + libmatroska v1.5.2

Video
ID                                       : 1
Format                                   : AVC
Format/Info                              : Advanced Video Codec
Format profile                           : [email protected]
Format settings, CABAC                   : Yes
Format settings, ReFrames                : 4 frames
Codec ID                                 : V_MPEG4/ISO/AVC
Duration                                 : 2h 11mn
Bit rate                                 : 2 000 Kbps
Width                                    : 1 920 pixels
Height                                   : 800 pixels
Display aspect ratio                     : 2.40:1
Frame rate mode                          : Constant
Frame rate                               : 23.976 (24000/1001) fps
Color space                              : YUV
Chroma subsampling                       : 4:2:0
Bit depth                                : 8 bits
Scan type                                : Progressive
Bits/(Pixel*Frame)                       : 0.054
Stream size                              : 1.84 GiB (84%)
Title                                    : 1080P - Filmbol.org
Writing library                          : x264 core 157
Default                                  : Yes
Forced                                   : No

Audio
ID                                       : 2
Format                                   : AC-3
Format/Info                              : Audio Coding 3
Mode extension                           : CM (complete main)
Format settings, Endianness              : Big
Codec ID                                 : A_AC3
Duration                                 : 2h 11mn
Bit rate mode                            : Constant
Bit rate                                 : 384 Kbps
Channel(s)                               : 6 channels
Channel positions                        : Front: L C R, Side: L R, LFE
Sampling rate                            : 48.0 KHz
Frame rate                               : 31.250 fps (1536 spf)
Compression mode                         : Lossy
Delay relative to video                  : 1s 0ms
Stream size                              : 362 MiB (16%)
Title                                    : Türkçe - Filmbol.org
Language                                 : Turkish
Default                                  : Yes
Forced                                   : No

Text
ID                                       : 3
Format                                   : UTF-8
Codec ID                                 : S_TEXT/UTF8
Codec ID/Info                            : UTF-8 Plain Text
Duration                                 : 2h 8mn
Bit rate                                 : 1 bps
Count of elements                        : 39
Stream size                              : 1.39 KiB (0%)
Title                                    : KISIM
Default                                  : Yes
Forced                                   : No


Film Detayları



Film Fragmanı


Film Detayları

Mini 1080P İndir


Uptobox ile indir


Mega linki şuan da gizli. Kullanıma açmak için konuya yorum yapın ve ardından sayfayı yenileyin.

Mega


f2ui

MediaFire ile indir

Şuan Offine!
Şuan Offine!
Hellenger28 Uzman Üye
**
Uzman Üye

  • Konular0
  • Mesajlar15
  • Rep puanı 0
herkese tavsiye ederim Wink
Şuan Offine!
Şuan Offine!
steelhand Yeni Üye
*
Üye

  • Konular0
  • Mesajlar5
  • Rep puanı 0
çok teşekkür ederim.
Şuan Offine!
Şuan Offine!
Ahmet34 Süper Üye
***
Super Üye

  • Konular0
  • Mesajlar32
  • Rep puanı 0
HARIKA
Şuan Offine!
Şuan Offine!
Aspirin46 Süper Üye
***
Super Üye

  • Konular0
  • Mesajlar57
  • Rep puanı 0
SÜPER
Şuan Offine!
Şuan Offine!
Dw4lLers Uzman Üye
**
Uzman Üye

  • Konular0
  • Mesajlar6
  • Rep puanı 0
sonunda geldi
Şuan Offine!
Şuan Offine!
KrkyTR Yeni Üye
*
Üye

  • Konular0
  • Mesajlar5
  • Rep puanı 0
Cool Efsane
Şuan Offine!
Şuan Offine!
byzaf Yeni Üye
*
Üye

  • Konular0
  • Mesajlar2
  • Rep puanı 0
Harika palaşım, teşekkürler.
Şuan Offine!
Şuan Offine!
mhmmdysf Uzman Üye
**
Uzman Üye

  • Konular0
  • Mesajlar6
  • Rep puanı 0
Güzel film
Şuan Offine!
Şuan Offine!
inansah Uzman Üye
**
Uzman Üye

  • Konular0
  • Mesajlar13
  • Rep puanı 0
teşkkrüelr


Konu ile Alakalı Benzer Konular
Konular Yazar Yorumlar Okunma Son Yorum
Filmin Yayınlanma Tarihi: 2016
Jack Reacher: Asla Geri Dönme (J.R: Never Go Back) Türkçe Dublaj m1080P İndir BroserBros 6 2,301 8 saat önce
Son Yorum: Erenio0
Filmin Yayınlanma Tarihi: 2016
Kung Fu Panda 3 Türkçe Dublaj m1080P İndir BroserBros 16 7,461 , Saat: 09:32
Son Yorum: metlebision
Filmin Yayınlanma Tarihi: 2014
Godzilla (Godzilla) Türkçe Dublaj 1080P İndir BroserBros 5 2,068 , Saat: 01:35
Son Yorum: FCBTZR
Filmin Yayınlanma Tarihi: 2005
Harry Potter ve Ateş Kadehi (Goblet of Fire) Türkçe Dublaj BLURAY 1080P İndir BroserBros 31 3,128 09-04-2021, Saat: 23:56
Son Yorum: axpell
Filmin Yayınlanma Tarihi: 2004
Harry Potter ve Azbakan Tutsağı (Prisoner of Azkaban) Türkçe Dublaj 1080P İndir BroserBros 16 1,848 09-04-2021, Saat: 23:51
Son Yorum: axpell

Hızlı Menü: