Filmbol Forum Film İndir 720P v Merak Etme, Fazla Uzaklaşamaz (2018) Türkçe Dublaj BLURAY m720P İndir
Mega linklerinin şikayet edilmemesi için global erişime kapatıp sadece yorum yapanlara açıyoruz. Bu linkleri gizleme işlemini mecburen yapıyoruz ve yorum yapmanızın siteye değil size faydası vardır. Teşekürler yazmayı çok görüp, Random/Spam mesajlar atarak Mega linklerini açmaya çalışan kullanıcılara önce süresiz ban, devam ederse IP ban atacağız.
Filmbol'da moderatör olmak ister misiniz? Bizimle iletişime geçmek için tıklayın!
Merak Etme, Fazla Uzaklaşamaz (2018) Türkçe Dublaj BLURAY m720P İndir
BroserBros
Merak Etme, Fazla Uzaklaşamaz (2018) Türkçe Dublaj BLURAY m720P İndir
3
619
  • Derecelendirme: 0/5 - 0 oy
  • 1
  • 2
  • 3
  • 4
  • 5
Konuyu Okuyanlar:1 Ziyaretçi
Şuan Online!
WWW
Şuan Online!
BroserBros Kurucu Admin
*******
Admin





Ses Kodek: AC3


Audio Coding 3 (AC3)






Merak Etme Fazla Uzaklasamaz



Teknik Detaylar


Kod :
General
Complete name                            : Merak.Etme.Fazla.Uzaklaşamaz.2018.m720p.BLURAY.x264.TR.Filmbol.mkv
Format                                   : Matroska
Format version                           : Version 4 / Version 2
File size                                : 1 013 MiB
Duration                                 : 1h 54mn
Overall bit rate                         : 1 239 Kbps
Movie name                               : Merak Etme, Fazla Uzaklaşamaz (2018) - Filmbol.org
Encoded date                             : UTC 2019-08-26 16:02:48
Writing application                      : mkvmerge v35.0.0 ('All The Love In The World') 64-bit
Writing library                          : libebml v1.3.9 + libmatroska v1.5.2

Video
ID                                       : 1
Format                                   : AVC
Format/Info                              : Advanced Video Codec
Format profile                           : [email protected]
Format settings, CABAC                   : Yes
Format settings, ReFrames                : 4 frames
Codec ID                                 : V_MPEG4/ISO/AVC
Duration                                 : 1h 54mn
Bit rate                                 : 1 050 Kbps
Width                                    : 1 280 pixels
Height                                   : 714 pixels
Display aspect ratio                     : 16:9
Frame rate mode                          : Constant
Frame rate                               : 23.976 (24000/1001) fps
Color space                              : YUV
Chroma subsampling                       : 4:2:0
Bit depth                                : 8 bits
Scan type                                : Progressive
Bits/(Pixel*Frame)                       : 0.048
Stream size                              : 858 MiB (85%)
Title                                    : 720P - Filmbol.org
Writing library                          : x264 core 155
Default                                  : Yes
Forced                                   : No

Audio
ID                                       : 2
Format                                   : AC-3
Format/Info                              : Audio Coding 3
Mode extension                           : CM (complete main)
Format settings, Endianness              : Big
Codec ID                                 : A_AC3
Duration                                 : 1h 51mn
Bit rate mode                            : Constant
Bit rate                                 : 192 Kbps
Channel(s)                               : 2 channels
Channel positions                        : Front: L R
Sampling rate                            : 48.0 KHz
Frame rate                               : 31.250 fps (1536 spf)
Compression mode                         : Lossy
Stream size                              : 153 MiB (15%)
Title                                    : Türkçe - Filmbol.org
Language                                 : Turkish
Default                                  : Yes
Forced                                   : No


Film Detayları


Merak Etme Fazla Uzaklasamaz

Merak Etme Fazla Uzaklasamaz

Merak Etme Fazla Uzaklasamaz


Film Fragmanı


Film Detayları

Mini 720P İndir


Uptobox ile indir


Mega linki şuan da gizli. Kullanıma açmak için konuya yorum yapın ve ardından sayfayı yenileyin.

Mega


f2ce

MediaFire ile indir

Şuan Offine!
Şuan Offine!
Ssss Uzman Üye
**
Uzman Üye

  • Konular0
  • Mesajlar14
  • Rep puanı 0
Teşekkürler...
Şuan Offine!
Şuan Offine!
emreakbdk Uzman Üye
**
Uzman Üye

  • Konular0
  • Mesajlar14
  • Rep puanı 0
thanks
Şuan Offine!
Şuan Offine!
firatcan142 Yeni Üye
*
Üye

  • Konular0
  • Mesajlar5
  • Rep puanı 0
fsafasfasfsafsa


Konu ile Alakalı Benzer Konular
Konular Yazar Yorumlar Okunma Son Yorum
Filmin Yayınlanma Tarihi: 2018
Uzun Kâbus (Slender Man) - 2018 - TR+ORG - 720P | tt5690360 BroserBros 2 708 10-04-2021, Saat: 18:29
Son Yorum: BroserBros
Filmin Yayınlanma Tarihi: 2018
Vahşi Batı Hikâyeleri (The Ballad of Buster Scruggs) - 2018 - TR+ORG - 720P | tt6412452 BroserBros 3 1,025 10-04-2021, Saat: 18:15
Son Yorum: BroserBros
Filmin Yayınlanma Tarihi: 2014
Hobbit: Beş Ordunun Savaşı Türkçe Dublaj 720P İndir BroserBros 7 5,595 03-04-2021, Saat: 22:08
Son Yorum: Dilan
Filmin Yayınlanma Tarihi: 2013
Hobbit: Smaug'un Çorak Toprakları Türkçe Dublaj 720P İndir BroserBros 2 4,027 03-04-2021, Saat: 22:07
Son Yorum: Dilan
Filmin Yayınlanma Tarihi: 2012
Hobbit: Beklenmedik Yolculuk (An Unexpected Journey) Türkçe Dublaj 720P İndir BroserBros 3 6,125 03-04-2021, Saat: 20:48
Son Yorum: Dilan

Hızlı Menü: